MEGA SALE -50% FORZA HORIZON 4 ULTIMATE+ВСЕ DLC+ОНЛАЙН всего за 599р. 299 руб. (супер цена). Внимание количество ограничено!!!

iTunes

1+1

iTunes

мы

iTunes

1

iTunes

Чернобыль

iTunes

Ральф против интернета

Лицензия

ПШазам

Лицензия

Игра престолов

Лицензия

30
pack

ВАЖНО

!!Акция!!

Alien_RageХит недели

RePack

Resident Evil 21

ИГРА 18+

pack

RePack

Metro:Exodus

!!Акция!!

Alien_Rage

RePack

fifa19

RePack

Assassins Creed: Odyssey

RePack

NEED FOR SPEED™ PAYBACK

3 сезон

9 сезон

Бесстыжие 9 сезон

Все сериалы

все сериалы на PB.wtf

RePack

FAR CRY 5
Ребята, катастрофически не хватает 7730р. для оплаты серверов за АВГУСТ (всвязи с блокировками трафик упал в 3 раза), 1-2р., выручайте.
  

Пираты кровавой реки / The Pirates of Blood River (Джон Джиллинг) [1962 г, драма, мелодрама, приключения, HDRip] MVO pb.wtf

Пираты кровавой реки через торрент pb.wtf

Размер: 1.09 GB | Добавлен: 1 год 8 мес. назад | Торрент скачан:14 раз
Скачать  

03-01-2018 13:25 Пираты кровавой реки Скачать торрент  

Пираты кровавой реки / The Pirates of Blood River
Год выпуска: 1962
Страна: Великобритания
Жанр: драма, мелодрама, приключения
Продолжительность: 01:26:58
Перевод: Профессиональный многоголосый (5-й канал СПб)

Режиссер: Джон Джиллинг

rating

В ролях: Кристофер Ли, Кервин Мэтьюз, Гленн Корбетт, Питер Арне, Марла Ланди, Оливер Рид, Эндрю Кейр, Майкл Риппер, Дэвид Лодж, Дэннис Ватерман, Джеролд Уэллс, Джон Беннет, Десмонд Ллевелин, Дэнис Шоу, Джек Стюарт, Дайан Обри, Ричард Беннетт, Рональд Блэкман, Джон Коллин, Мари Деверо, Дон Леви, Майкл Малкастер, Майкл Пик, Джон Роден

Описание: Капитан морских разбойников Ла Рош уверен, что в деревне Джонатана находятся некие сокровища, и хочет, чтобы юноша привел его к ним. Но сам изгнанник даже не догадывается о том, что настоящее сокровище деревни — статуя его дедушки, на самом деле сделанная из чистого золота.

Качество: HDRip
Формат: AVI
Видео: XviD, 1593 Кбит/с, 720x304, 23.976 кадр/с
Аудио: AC3, 2 ch, 192 Кбит/с
Релиз от: Koenig
скриншот   скриншот   скриншот   скриншот   скриншот   скриншот  

Общее
Полное имя : The.Pirates.of.Blood.River.1962.HDRip.avi
Формат : AVI
Формат/Информация : Audio Video Interleave
Размер файла : 1,09 Гбайт
Продолжительность : 1 ч. 26 м.
Общий поток : 1794 Кбит/сек
Программа кодирования : VirtualDubMod 1.5.10.2 (build 2540/release)
Библиотека кодирования : VirtualDubMod build 2540/release

Видео
Идентификатор : 0
Формат : MPEG-4 Visual
Профиль формата : Advanced Simple@L5
Параметр BVOP формата : 1
Параметр QPel формата : Нет
Параметр GMC формата : Без точки перехода
Параметр матрицы формата : Выборочная
Идентификатор кодека : XVID
Идентификатор кодека/Подсказка : XviD
Продолжительность : 1 ч. 26 м.
Битрейт : 1593 Кбит/сек
Ширина : 720 пикселей
Высота : 304 пикселя
Соотношение сторон : 2,35:1
Частота кадров : 23,976 (24000/1001) кадра/сек
Цветовое пространство : YUV
Субдискретизация насыщенности : 4:2:0
Битовая глубина : 8 бит
Тип развёртки : Прогрессивная
Метод сжатия : С потерями
Бит/(Пиксели*Кадры) : 0.304
Размер потока : 991 Мбайт (89%)
Библиотека кодирования : XviD 65

Аудио
Идентификатор : 1
Формат : AC-3
Формат/Информация : Audio Coding 3
Параметр Endianness формата : Big
Идентификатор кодека : 2000
Продолжительность : 1 ч. 26 м.
Вид битрейта : Постоянный
Битрейт : 192 Кбит/сек
Каналы : 2 канала
Расположение каналов : Front: L R
Частота : 48,0 КГц
Частота кадров : 31,250 кадров/сек (1536 spf)
Битовая глубина : 16 бит
Метод сжатия : С потерями
Размер потока : 119 Мбайт (11%)
Выравнивание : Разделение по промежуткам
Продолжительность промежутка : 42 мс. (1,00 видеокадр)
Время предзагрузки промежутка : 500 мс.
ServiceKind/String : Complete Main

pb.wtf



Скачать Пираты кровавой реки через торрент http://pic1.kartinco.top/images/11/lnbgm.jpg Скачать фильм Пираты кровавой реки через торрент бесплантно в хорошем качестве Описание: Капитан морских разбойников Ла Рош уверен, что в деревне Джонатана находятся некие сокровища, и хочет, чтобы юноша привел его к ... 10 10 1
Торрент: Зарегистрирован [2018-01-03 13:25] · скачан: 14 раз
Статус: √ проверено
Размер: 1.09 GB
Как cкачать? Как скачать Пираты кровавой реки через торрент | qTorrent


>> Регистрируемся здесь <<






Отзывы и комментарии о схеме читаем и пишем здесь: ---> Отзывы и комментарии о схеме

Новые благодарочки в телеграм довольных пользователей:
скриншот   скриншот   скриншот   скриншот   скриншот
    Дорогой пользователь! Огромная просьба, поблагодарите релизера, оцените раздачу и оставьте свои комментарий, если Вы скачали Пираты кровавой реки через торрент бесплатно! Внесите свою лепту в развитие PiratBit!
    Комментировать посты могут только пользователи прошедшие не сложную регистрацию
    Показать сообщения:    

    Пираты кровавой реки через торрент
    Скачать бесплатно Пираты кровавой реки
    Пираты кровавой реки скачать торрент
    Пираты кровавой реки смотреть онлайн
    Cкачать фильм Пираты кровавой реки бесплатно
    Пираты кровавой реки скачать торрент в хорошем качестве
    Пираты кровавой реки смотреть онлайн бесплатно в хорошем качестве


    Вы не можете начинать темы
    Вы не можете отвечать на сообщения
    Вы не можете редактировать свои сообщения
    Вы не можете удалять свои сообщения
    Вы не можете голосовать в опросах
    Вы не можете прикреплять файлы к сообщениям
    Вы можете скачивать файлы