Anonymous, добрый вечер, присоединяйтесь к нам в Telegram!, здесь всегда актуальный адрес сайта, оперативная поддержка и многое другое!

>

5.5

iTunes

7.4

iTunes

7.9

iTunes

1

7.7

1 сезон

6.8

iTunes

7.3

1 сезон

13

6.7

1 сезон

8.3

RePack

30

ULTIMATE

pack

9.9

Лицензия

ВАЖНО

ИГРА 18+

pack

7.3

RePack

MK11

7.7

RePack

jed

7.8

RePack

fifa19

8.5

RePack

RDR2

RePack

NEED FOR SPEED™ PAYBACK

4 сезон

9 сезон

Бесстыжие 9 сезон

Все сериалы

все сериалы на PB.wtf

RePack

FAR CRY 5

Anonymous, добрый вечер, мы катастрофически не успеваем собрать деньги на оплату серверов, помогите нам пожалуйста 5,10,15р., для нас важна любая помощь . В качестве благодарности мы отключим Вам всю рекламу на сайте (укажите свой ник в строку Ваше имя)!

×
  
Magnet ссылка

Озабоченные, или Любовь зла / Сезон 1 / Серии 1-21 из 21 (Борис Хлебников) [2015, комедия, WEB-DL 720p] pb.wtf

Озабоченные, или Любовь зла через торрент pb.wtf

Размер: 11.79 GB | Добавлен: 3 года 9 мес. назад | Торрент скачан:199 раз
Смотреть онлайн Озабоченные, или Любовь зла | Скачать    Ребята, помогите собрать деньги на оплату серверов!!!

03-01-2018 18:47 Озабоченные, или Любовь зла Скачать торрент  

Озабоченные, или Любовь зла Год выпуска: 2015
Страна: Россия
Жанр: комедия
Продолжительность: 21 х ~ 00:26:00
Субтитры: отсутствуют

Режиссер: Борис Хлебников

rating

В ролях:

Мария Шалаева, Евгения Калинец, Ольга Дибцева, Юрий Колокольников, Николай Шрайбер, Иван Шмаков, Сергей Бурунов, Константин Желдин, Евгений Цыганов, Борис Каморзин, Роман Волобуев, Евгений Сытый, Елена Валюшкина, Евгений Муравич, Альбина Тиханова, Донатас Грудович, Сергей Астахов, Бесо Гатаев, Александр Никольский (II), Анна Очкова, Илья Маланин, Михаил Куряев, Руслан Ягудин, Александр Хованский (II), Анна Легчилова, Мария Малиновская, Геннадий Матвеев, Елена Альмяшева, Анна Котова, Екатерина Берлинская, Сергей Ланбамин, Алексей Маслодудов, Максим Костромыкин, Наталья Рыжих

Описание:

История простой девушки из Екатеринбурга Саши Гвоздиковой. Осознав, что в жизни нужно что-то менять, Саша уезжает в Москву, бросив скучную работу и женатого любовника. Саша пишет рассказы и мечтает, чтобы их опубликовали, но переоценивает свой писательский талант. Вместе с Сашей в Москве живут две ее лучшие подруги из Екатеринбурга, Катя и Алена. Сюжет истории, снятой одновременно и смешно, и лирично, вертится вокруг трех героинь, которые пытаются найти себя в столичной жизни и в отношениях.

Качество: WEB-DL 720p
Формат: MKV
Видео кодек: H.264
Аудио кодек: AC3

Видео: 1280х720р (16:9), 25 fps, AVC MPEG-4 (x264), High@L4.0 ~ 3200 kbps avg, 0.148 bit/pixel
Аудио: 48 kHz, AC3, 2 ch, ~ 192 kbps avg
скриншот  скриншот  скриншот  скриншот  

Общее
Уникальный идентификатор : 242490023522969527597534958977440209314 (0xB66DE1376A100616B3A4839CEC4ED9A2)
Полное имя : Ozab0chenye.2015.WEB-DL.(720p).\Ozab0chenye.(01.seriya.iz.24).2015.WEB-DL.(720p).mkv
Формат : Matroska
Версия формата : Version 2
Размер файла : 626 Мбайт
Продолжительность : 26 м.
Общий поток : 3449 Кбит/сек
Название фильма : Ozab0chenye.(01.seriya.iz.24).2015.WEB-DL.(720p) @ release by Nikolspup MediaClub
Дата кодирования : UTC 2015-11-09 20:12:08
Программа кодирования : mkvmerge v5.8.0 ('No Sleep / Pillow') built on Sep 2 2012 15:37:04
Библиотека кодирования : libebml v1.2.3 + libmatroska v1.3.0

Видео
Идентификатор : 1
Формат : AVC
Формат/Информация : Advanced Video Codec
Профиль формата : High@L4.0
Параметр CABAC формата : Да
Параметр ReFrames формата : 8 кадров
Идентификатор кодека : V_MPEG4/ISO/AVC
Продолжительность : 26 м.
Битрейт : 3200 Кбит/сек
Ширина : 1280 пикселей
Высота : 720 пикселей
Соотношение сторон : 16:9
Режим частоты кадров : Постоянный
Частота кадров : 25,000 кадров/сек
Цветовое пространство : YUV
Субдискретизация насыщенности : 4:2:0
Битовая глубина : 8 бит
Тип развёртки : Прогрессивная
Бит/(Пиксели*Кадры) : 0.148
Размер потока : 577 Мбайт (92%)
Библиотека кодирования : x264 core 142 r2455 021c0dc
Настройки программы : cabac=1 / ref=8 / deblock=1:-1:-1 / analyse=0x3:0x133 / me=umh / subme=9 / psy=1 / psy_rd=1.00:0.15 / mixed_ref=1 / me_range=16 / chroma_me=1 / trellis=2 / 8x8dct=1 / cqm=0 / deadzone=21,11 / fast_pskip=1 / chroma_qp_offset=-3 / threads=24 / lookahead_threads=2 / sliced_threads=0 / nr=0 / decimate=1 / interlaced=0 / bluray_compat=0 / constrained_intra=0 / bframes=3 / b_pyramid=2 / b_adapt=2 / b_bias=0 / direct=3 / weightb=1 / open_gop=0 / weightp=2 / keyint=250 / keyint_min=25 / scenecut=40 / intra_refresh=0 / rc_lookahead=60 / rc=crf / mbtree=1 / crf=17.0 / qcomp=0.60 / qpmin=0 / qpmax=69 / qpstep=4 / vbv_maxrate=3600 / vbv_bufsize=3600 / crf_max=0.0 / nal_hrd=none / filler=0 / ip_ratio=1.40 / aq=1:1.00
Default : Да
Forced : Да

Аудио
Идентификатор : 2
Формат : AC-3
Формат/Информация : Audio Coding 3
Расширение режима : CM (complete main)
Параметр Endianness формата : Big
Идентификатор кодека : A_AC3
Продолжительность : 26 м.
Вид битрейта : Постоянный
Битрейт : 192 Кбит/сек
Каналы : 2 канала
Расположение каналов : Front: L R
Частота : 48,0 КГц
Метод сжатия : С потерями
Размер потока : 37,0 Мбайт (6%)
Язык : Russian
Default : Да
Forced : Да
Ссылки на серии

pb.wtf



Скачать Озабоченные, или Любовь зла через торрент https://d.radikal.ru/d16/1903/c9/f20b2a9d67b1.jpg Скачать, смотреть онлайн Озабоченные, или Любовь зла бесплантно в хорошем качестве Описание: История простой девушки из Екатеринбурга Саши Гвоздиковой. Осознав, что в жизни нужно что-то менять, Саша уезжает в Москву, ... 10 10 8
Торрент: Зарегистрирован [2018-01-03 18:47] · скачан: 199 раз
Статус: √ проверено
Размер: 11.79 GB
Как cкачать? Как скачать Озабоченные, или Любовь зла через торрент | UTorrent

% Раздел Тема Автор DL S | L
TNT serials [ 6.53 GB ] Озабоченные или Любовь зла / Сезон: 1 / Серии: 1-21 из 21 [2015 WEB-DLRip-AVC] bober100 Скачать
1 | 0
TNT serials [ 6.75 GB ] Озабоченные или Любовь зла / Сезон: 1 / Серии: 1-21 из 21 [2015 WEB-DLRip] bober100 Скачать
1 | 0
TNT serials [ 6.74 GB ] Озабоченные или Любовь зла / Сезон: 1 / Серии: 1-21 из 21 [2015 SATRip] diletant Скачать
1 | 0


Последний раз редактировалось: bober100 (2019-03-03 14:18), всего редактировалось 1 раз

28-11-2019 20:33  

Отключить всю рекламу на сайте

    Дорогой пользователь! Огромная просьба, поблагодарите релизера, оцените раздачу и оставьте свои комментарий, если Вы скачали Озабоченные, или Любовь зла через торрент бесплатно!
    Комментировать посты могут только пользователи прошедшие не сложную регистрацию
    Показать сообщения:    

    Озабоченные, или Любовь зла через торрент
    Скачать бесплатно Озабоченные, или Любовь зла
    Озабоченные, или Любовь зла скачать торрент
    Озабоченные, или Любовь зла смотреть онлайн
    Cкачать фильм Озабоченные, или Любовь зла бесплатно
    Озабоченные, или Любовь зла скачать торрент в хорошем качестве
    Озабоченные, или Любовь зла смотреть онлайн бесплатно в хорошем качестве


    Вы не можете начинать темы
    Вы не можете отвечать на сообщения
    Вы не можете редактировать свои сообщения
    Вы не можете удалять свои сообщения
    Вы не можете голосовать в опросах
    Вы не можете прикреплять файлы к сообщениям
    Вы можете скачивать файлы