Ссылка на приватное зеркало всего за 1$. Внимание количество ограничено!!!

OK

1+1

iTunes

мы

OK

1

WEB-DLRip

Джокер

Пифагор

Ведьмак / The Witcher сериал

iTunes

ПШазам

ОК

Оно 2

iTunes

30
pack

Вам бонус

ВАЖНО

!!Акция!!

Alien_RageХит недели

RePack

Resident Evil 21

ИГРА 18+

pack

RePack

jed

RePack

fifa19

RePack

Assassins Creed: Odyssey

RePack

NEED FOR SPEED™ PAYBACK

4 сезон

9 сезон

Бесстыжие 9 сезон

Все сериалы

все сериалы на PB.wtf

RePack

FAR CRY 5
  

Смертоносная земля / Killing Ground (Дэмиен Пауэр) [2016, ужасы, триллер, BDRip 720p] MVO [GreenРай Studio] pb.wtf

Смертоносная земля через торрент pb.wtf

Размер: 2.81 GB | Добавлен: 2 года назад | Торрент скачан:123 раза
Скачать  

03-01-2018 20:04 Смертоносная земля Скачать торрент  

Смертоносная земля / Killing GroundГод выпуска: 2016
Страна: Австралия
Жанр: ужасы, триллер
Продолжительность: 01:29:32
Перевод: Любительский (многоголосый) | GreenРай Studio
Субтитры: отсутствуют

Режиссер: Дэмиен Пауэр

rating

В ролях:

Харриет Дайер, Йен Медоуз, Тиэрни Коуплэнд, Аарон Педерсен, Мая Стенж, Стивен Хантер, Аарон Гленнэйн, Митци Рулманн

Описание:

Сэм и Йен решили провести выходные в палатке у озера в лесу. Природа, тишина — красота! На месте парочка обнаруживает другую палатку и никого рядом. На следующий день тишина становится подозрительной, а когда посреди леса вдруг обнаруживается чумазый годовалый ребёнок, это уже повод для серьёзного беспокойства...

Качество: BDRip 720p
Формат: MKV
Видео кодек: H.264
Аудио кодек: AC3

Видео: 1280x536 (2.40:1), 23.976 fps, 4000 Кбит/с
Аудио#1: AC3, 2 ch, 640 Кбит/с)


скриншот  скриншот  скриншот  

General
Unique ID : 247752444514108476553871538827927511139 (0xBA63629A66E240278E2090918B186063)
Complete name : D:Смертоносная земляKilling.Ground.2016.P.BDRip.720p.mkv
Format : Matroska
Format version : Version 4 / Version 2
File size : 2.81 GiB
Duration : 1 h 29 min
Overall bit rate mode : Constant
Overall bit rate : 4 513 kb/s
Encoded date : UTC 2017-12-28 13:49:39
Writing application : mkvmerge v8.3.0 ('Over the Horizon') 64bit
Writing library : libebml v1.3.1 + libmatroska v1.4.2

Video
ID : 1
Format : AVC
Format/Info : Advanced Video Codec
Format profile : Main@L3.1
Format settings, CABAC : Yes
Format settings, ReFrames : 3 frames
Codec ID : V_MPEG4/ISO/AVC
Duration : 1 h 29 min
Bit rate mode : Constant
Bit rate : 4 000 kb/s
Width : 1 280 pixels
Height : 536 pixels
Display aspect ratio : 2.40:1
Frame rate mode : Constant
Frame rate : 23.976 (23976/1000) FPS
Standard : NTSC
Color space : YUV
Chroma subsampling : 4:2:0
Bit depth : 8 bits
Scan type : Progressive
Bits/(Pixel*Frame) : 0.243
Stream size : 2.41 GiB (86%)
Language : English
Default : Yes
Forced : No
Color range : Limited

Audio
ID : 2
Format : AC-3
Format/Info : Audio Coding 3
Mode extension : CM (complete main)
Format settings, Endianness : Big
Codec ID : A_AC3
Duration : 1 h 29 min
Bit rate mode : Constant
Bit rate : 640 kb/s
Channel(s) : 2 channels
Channel positions : Front: L R
Sampling rate : 48.0 kHz
Frame rate : 31.250 FPS (1536 spf)
Compression mode : Lossy
Stream size : 409 MiB (14%)
Default : Yes
Forced : No

pb.wtf



Скачать Смертоносная земля через торрент http://c.radikal.ru/c19/1801/2f/718a9b480d6a.jpg Скачать фильм Смертоносная земля через торрент бесплантно в хорошем качестве Описание: Сэм и Йен решили провести выходные в палатке у озера в лесу. Природа, тишина — красота! На месте парочка обнаруживает другую ... 7.6 10 5
Торрент: Зарегистрирован [2018-01-03 20:04] · скачан: 123 раз
Статус: # сомнительно
Размер: 2.81 GB
Как cкачать? Как скачать Смертоносная земля через торрент | qTorrent

% Раздел Тема Автор DL S | L
T Фильмы (мультфильмы) cо спонсором показа (Новинки AVI/MKV) [ 1.37 GB ] Смертоносная земля / Killing Ground [2016 HDRip] MVO [GreenРай Studio] bober100 Скачать
1 | 0
T Релизы по Парсеру [Игры, Сериалы и Фильмы и другое...] [ 700 MB ] Смертоносная земля / Killing Ground [2016 WEB-DLRip] MVO [Синема УС] bober100 Скачать
1 | 0
T Релизы по Парсеру [Игры, Сериалы и Фильмы и другое...] [ 1.37 GB ] Смертоносная земля / Killing Ground [2016 WEB-DLRip] MVO [Синема УС] bober100 Скачать
1 | 0
T Релизы по Парсеру [Игры, Сериалы и Фильмы и другое...] [ 2.77 GB ] Смертоносная земля / Killing Ground [2016 WEB-DL 720p] MVO [Синема УС] bober100 Скачать
1 | 0
Фильмы до 2000 г. [ 1.37 GB ] Смертоносные земли / The Killing Grounds [1998 DVDRip ] DJERG Скачать
1 | 0

28-11-2019 20:33  

Отключить всю рекламу на сайте

    Дорогой пользователь! Огромная просьба, поблагодарите релизера, оцените раздачу и оставьте свои комментарий, если Вы скачали Смертоносная земля через торрент бесплатно! Внесите свою лепту в развитие PiratBit!
    Комментировать посты могут только пользователи прошедшие не сложную регистрацию
    Показать сообщения:    

    Смертоносная земля через торрент
    Скачать бесплатно Смертоносная земля
    Смертоносная земля скачать торрент
    Смертоносная земля смотреть онлайн
    Cкачать фильм Смертоносная земля бесплатно
    Смертоносная земля скачать торрент в хорошем качестве
    Смертоносная земля смотреть онлайн бесплатно в хорошем качестве


    Вы не можете начинать темы
    Вы не можете отвечать на сообщения
    Вы не можете редактировать свои сообщения
    Вы не можете удалять свои сообщения
    Вы не можете голосовать в опросах
    Вы не можете прикреплять файлы к сообщениям
    Вы можете скачивать файлы