Ссылка на приватное зеркало всего за 1$. Внимание количество ограничено!!!

OK

1+1

iTunes

мы

OK

1

WEB-DLRip

Джокер

Пифагор

Ведьмак / The Witcher сериал

Лицензия

ПШазам

ОК

Оно 2

iTunes

30
pack

Вам бонус

ВАЖНО

!!Акция!!

Alien_RageХит недели

RePack

Resident Evil 21

ИГРА 18+

pack

RePack

jed

RePack

fifa19

RePack

Assassins Creed: Odyssey

RePack

NEED FOR SPEED™ PAYBACK

4 сезон

9 сезон

Бесстыжие 9 сезон

Все сериалы

все сериалы на PB.wtf

RePack

FAR CRY 5
  

Проклятие куклы Роберт / The Curse of Robert the Doll (Эндрю Джонс) [2016, ужасы, BDRip 720p] MVO [GreenРай Studio] pb.wtf

Проклятие куклы Роберт через торрент pb.wtf

Размер: 2.44 GB | Добавлен: 2 года назад | Торрент скачан:46 раз
Скачать  

03-01-2018 20:17 Проклятие куклы Роберт Скачать торрент  

Проклятие куклы Роберт / The Curse of Robert the DollГод выпуска: 2016
Страна: Великобритания
Жанр: ужасы
Продолжительность: 01:20:10
Перевод: Любительский (многоголосый) - [GreenРай Studio]
Субтитры: отсутствуют

Режиссер: Эндрю Джонс

rating

В ролях:

Ли Бэйн, Сьюзи Фрэнсис Гартон, Тиффани Чери, Найджел Барбер, Крис Белл, Джейсон Хоумвуд, Дэвид Брайдл, Стивен Долтон, Клер Голлоп, Шелли Браун

Описание:

Студентке Эмили Баркер нужны деньги, и она решает устроиться уборщицей в музей на ночные смены. Вскоре девушка начинает подозревать, что жуткая старинная кукла по имени Роберт жива и сеет хаос после закрытия музея.

Качество: BDRip 720p
Формат: MKV
Видео кодек: H.264
Аудио кодек: AC3

Видео: 1280x576 (2.222), 25.000 fps, 4000 Кбит/с
Аудио: AC3, 2 ch, 640 Кбит/с


скриншот  скриншот  скриншот  

General
Unique ID : 254374294656238379091225235277210218112 (0xBF5EB5058F439DE3ADEC9697566C6E80)
Complete name : D:РобертThe.Curse.of.Robert.the.Doll.2016.P.BDRip.720p.mkv
Format : Matroska
Format version : Version 4 / Version 2
File size : 2.44 GiB
Duration : 1 h 20 min
Overall bit rate mode : Constant
Overall bit rate : 4 355 kb/s
Encoded date : UTC 2017-12-31 06:55:52
Writing application : mkvmerge v8.3.0 ('Over the Horizon') 64bit
Writing library : libebml v1.3.1 + libmatroska v1.4.2

Video
ID : 1
Format : AVC
Format/Info : Advanced Video Codec
Format profile : Main@L3.1
Format settings, CABAC : Yes
Format settings, ReFrames : 3 frames
Format settings, GOP : M=4, N=15
Codec ID : V_MPEG4/ISO/AVC
Duration : 1 h 20 min
Bit rate mode : Constant
Bit rate : 3 713 kb/s
Nominal bit rate : 4 000 kb/s
Width : 1 280 pixels
Height : 576 pixels
Display aspect ratio : 2.222
Frame rate mode : Constant
Frame rate : 25.000 FPS
Standard : NTSC
Color space : YUV
Chroma subsampling : 4:2:0
Bit depth : 8 bits
Scan type : Progressive
Bits/(Pixel*Frame) : 0.201
Stream size : 2.08 GiB (85%)
Language : English
Default : Yes
Forced : No
Color range : Limited

Audio
ID : 2
Format : AC-3
Format/Info : Audio Coding 3
Mode extension : CM (complete main)
Format settings, Endianness : Big
Codec ID : A_AC3
Duration : 1 h 20 min
Bit rate mode : Constant
Bit rate : 640 kb/s
Channel(s) : 2 channels
Channel positions : Front: L R
Sampling rate : 48.0 kHz
Frame rate : 31.250 FPS (1536 spf)
Compression mode : Lossy
Stream size : 368 MiB (15%)
Default : Yes
Forced : No

pb.wtf



Скачать Проклятие куклы Роберт через торрент http://c.radikal.ru/c06/1801/2b/fba87898c033.jpg Скачать фильм Проклятие куклы Роберт через торрент бесплантно в хорошем качестве Описание: Студентке Эмили Баркер нужны деньги, и она решает устроиться уборщицей в музей на ночные смены. Вскоре девушка начинает ... 10 10 4
Торрент: Зарегистрирован [2018-01-03 20:17] · скачан: 46 раз
Статус: # сомнительно
Размер: 2.44 GB
Как cкачать? Как скачать Проклятие куклы Роберт через торрент | qTorrent

% Раздел Тема Автор DL S | L
T Фильмы (мультфильмы) cо спонсором показа (Новинки AVI/MKV) [ 1.34 GB ] Проклятие куклы Роберт / The Curse of Robert the Doll [2016 HDRip] MVO [GreenРай Studio] bober100 Скачать
1 | 0
Фильмы с авторской озвучкой [ 1.35 GB ] Проклятие куклы Роберт / The Curse of Robert the Doll [2016 г DVDRip] Авторский одноголосый [А. Дольский] sanekbest1 Скачать
1 | 0

28-11-2019 20:33  

Отключить всю рекламу на сайте

    Дорогой пользователь! Огромная просьба, поблагодарите релизера, оцените раздачу и оставьте свои комментарий, если Вы скачали Проклятие куклы Роберт через торрент бесплатно! Внесите свою лепту в развитие PiratBit!
    Комментировать посты могут только пользователи прошедшие не сложную регистрацию
    Показать сообщения:    

    Проклятие куклы Роберт через торрент
    Скачать бесплатно Проклятие куклы Роберт
    Проклятие куклы Роберт скачать торрент
    Проклятие куклы Роберт смотреть онлайн
    Cкачать фильм Проклятие куклы Роберт бесплатно
    Проклятие куклы Роберт скачать торрент в хорошем качестве
    Проклятие куклы Роберт смотреть онлайн бесплатно в хорошем качестве


    Вы не можете начинать темы
    Вы не можете отвечать на сообщения
    Вы не можете редактировать свои сообщения
    Вы не можете удалять свои сообщения
    Вы не можете голосовать в опросах
    Вы не можете прикреплять файлы к сообщениям
    Вы можете скачивать файлы