2 сезон

iTunes

MVO

1

2 сезон

iTunes

iTunes

1 сезон

RePack

30

Ultimate

ВАЖНО

ИГРА 18+

pack

RePack

MK11
pack

Легкие деньги

RePack

jed

RePack

fifa19

RePack

RDR2

RePack

NEED FOR SPEED™ PAYBACK

4 сезон

9 сезон

Бесстыжие 9 сезон

Все сериалы

все сериалы на PB.wtf

RePack

FAR CRY 5

Anonymous, доброй ночи, мы не успеваем собрать деньги на оплату серверов за декабрь и январь, помогите нам пожалуйста в это трудное время. В качестве благодарности мы отключим Вам всю рекламу на сайте (укажите свой ник в строку Ваше имя)!

×
  
Magnet ссылка

Бегущий по лезвию 2049 / Blade Runner 2049 (Дени Вильнёв) [2017, фантастика, триллер, BDRip] DUB [Лицензия] pb.wtf

Бегущий по лезвию 2049 через торрент pb.wtf

Размер: 1.37 GB | Добавлен: 3 года назад | Торрент скачан:553 раза
Скачать  

03-01-2018 20:51 Бегущий по лезвию 2049 Скачать торрент  

Бегущий по лезвию 2049 / Blade Runner 2049Год выпуска: 2017
Страна: США , Великобритания , Канада
Жанр: фантастика, триллер
Продолжительность: 02:43:26
Перевод: Дубляж Лицензия
Субтитры: отсутствуют

Режиссер: Дени Вильнёв

rating

В ролях:

Райан Гослинг, Харрисон Форд, Сильвия Хукс, Робин Райт, Вильма Сечи, Ана де Армас, Вуд Харрис, Дэйв Батиста, Давид Дастмалчян, Томас Лемарку, Марк Арнольд

Описание:

В недалеком будущем мир населен людьми и репликантами, созданными выполнять самую тяжелую работу. Работа офицера полиции Кей — держать репликантов под контролем в условиях нарастающего напряжения… Пока он случайно не становится обладателем секретной информации. Желая найти ключ к разгадке, Кей решает разыскать Рика Декарда, бывшего офицера специального подразделения полиции Лос-Анджелеса, который бесследно исчез много лет назад..

Качество: BDRip
Формат: AVI
Видео кодек: XviD
Аудио кодек: AC3

Видео: 1060 Кбит/с, 720x304
Аудио: Русский (AC3, 2 ch, 128 Кбит/с)
скриншот  скриншот  скриншот  

Общее
Полное имя : C:\BlaDe.RaNNar.2O49.2O17.D.BDRip.14OOMB.avi
Формат : AVI
Формат/Информация : Audio Video Interleave
Размер файла : 1,37 Гбайт
Продолжительность : 2 ч. 43 м.
Общий поток : 1197 Кбит/сек
Программа кодирования : VirtualDubMod 1.5.10.2 (build 2540/release)
Библиотека кодирования : VirtualDubMod build 2540/release

Видео
Идентификатор : 0
Формат : MPEG-4 Visual
Профиль формата : Advanced Simple@L5
Параметр BVOP формата : 2
Параметр QPel формата : Нет
Параметр GMC формата : Без точки перехода
Параметр матрицы формата : Default (MPEG)
Идентификатор кодека : XVID
Идентификатор кодека/Подсказка : XviD
Продолжительность : 2 ч. 43 м.
Битрейт : 1060 Кбит/сек
Ширина : 720 пикселей
Высота : 304 пикселя
Соотношение сторон : 2,35:1
Частота кадров : 23,976 (24000/1001) кадра/сек
Цветовое пространство : YUV
Субдискретизация насыщенности : 4:2:0
Битовая глубина : 8 бит
Тип развёртки : Прогрессивная
Метод сжатия : С потерями
Бит/(Пиксели*Кадры) : 0.202
Размер потока : 1,21 Гбайт (89%)
Библиотека кодирования : XviD 1.2.1 (UTC 2008-12-04)

Аудио
Идентификатор : 1
Формат : AC-3
Формат/Информация : Audio Coding 3
Расширение режима : CM (complete main)
Параметр Endianness формата : Big
Идентификатор кодека : 2000
Продолжительность : 2 ч. 43 м.
Вид битрейта : Постоянный
Битрейт : 128 Кбит/сек
Каналы : 2 канала
Расположение каналов : Front: L R
Частота : 48,0 КГц
Частота кадров : 31,250 кадров/сек (1536 spf)
Метод сжатия : С потерями
Размер потока : 150 Мбайт (11%)
Выравнивание : Разделение по промежуткам
Продолжительность промежутка : 42 мс. (1,00 видеокадр)
Время предзагрузки промежутка : 500 мс.
pb.wtf



Скачать Бегущий по лезвию 2049 через торрент http://i101.fastpic.ru/big/2018/0101/14/80d2282704b4a5f6c915b8e8e7b2e514.jpg Скачать фильм Бегущий по лезвию 2049 через торрент бесплантно в хорошем качестве Описание: В недалеком будущем мир населен людьми и репликантами, созданными выполнять самую тяжелую работу. Работа офицера полиции Кей — ... 9.6 10 10
Торрент: Зарегистрирован [2018-01-03 20:51] · скачан: 553 раз
Статус: √ проверено
Размер: 1.37 GB
Как cкачать? Как скачать Бегущий по лезвию 2049 через торрент | UTorrent

% Раздел Тема Автор DL S | L
Ultra HD (UHD: 2K, 4K, 8K) — видео сверхвысокой чёткости [ 76.33 GB ] Бегущий по лезвию 2049 / Blade Runner 2049 [2017 научная UHD BDRemux 2160p] DUB [] + 5xAVO + VO sheker187 Скачать
1 | 0
Ultra HD (UHD: 2K, 4K, 8K) — видео сверхвысокой чёткости [ 27.51 GB ] Бегущий по лезвию 2049 / Blade Runner 2049 [2017 научная UHD BDRip 2160p] [SDR] DUB + AVO [Д.Есарев] sheker187 Скачать
1 | 0
Фильмы с авторской озвучкой [ 3.61 GB ] Бегущий по лезвию 2049 / Ликвидатор 2049 / Blade Runner 2049 [2017 BDRip] 4x[AVO] killermax2013 Скачать
1 | 0
Фильмы [HD 720p, 1080p] (Хороший звук DUB, MVO) [ 8.28 GB ] Бегущий по лезвию 2049 / Blade Runner 2049 [2017 BDRip-HEVC 1080p] DUB [] WorldSM Скачать
1 | 0
Фильмы (HD 720p, 1080p) (48-60 fps) [ 5.25 GB ] Бегущий по лезвию 2049 / Blade Runner 2049 [2017 BDRip 720p 60 fps от еnvy / NNNB] NOR-Transfer | DUB еnvy Скачать
28 | 1
Фильмы 2017 [DVDrip, WEB-DLRip, HDrip] (DUB, MVO) [ 1.46 GB ] Бегущий по лезвию 2049 / Blade Runner 2049 [2017 BDRip] - [] Twi7ter Скачать
2 | 0
Ultra HD (UHD: 2K, 4K, 8K) — видео сверхвысокой чёткости [ 81.15 GB ] Бегущий по лезвию 2049 / Blade Runner 2049 [2017 UHD BDRemux 2160p] 2xAVO [Д.Есарев Ю.Живов] +DUB +DUB [] bober100 Скачать
2 | 0

28-11-2019 20:33  

Отключить всю рекламу на сайте

    Дорогой пользователь! Огромная просьба, поблагодарите релизера, оцените раздачу и оставьте свои комментарий, если Вы скачали Бегущий по лезвию 2049 через торрент бесплатно! Внесите свою лепту в развитие PiratBit!
    Комментировать посты могут только пользователи прошедшие не сложную регистрацию
    Показать сообщения:    

    Бегущий по лезвию 2049 через торрент
    Скачать бесплатно Бегущий по лезвию 2049
    Бегущий по лезвию 2049 скачать торрент
    Бегущий по лезвию 2049 смотреть онлайн
    Cкачать фильм Бегущий по лезвию 2049 бесплатно
    Бегущий по лезвию 2049 скачать торрент в хорошем качестве
    Бегущий по лезвию 2049 смотреть онлайн бесплатно в хорошем качестве


    Вы не можете начинать темы
    Вы не можете отвечать на сообщения
    Вы не можете редактировать свои сообщения
    Вы не можете удалять свои сообщения
    Вы не можете голосовать в опросах
    Вы не можете прикреплять файлы к сообщениям
    Вы можете скачивать файлы