2 сезон

iTunes

MVO

1

2 сезон

iTunes

iTunes

1 сезон

RePack

30

Новинка

ВАЖНО

ИГРА 18+

pack

RePack

MK11
pack

Легкие деньги

RePack

jed

RePack

fifa19

RePack

RDR2

RePack

NEED FOR SPEED™ PAYBACK

4 сезон

9 сезон

Бесстыжие 9 сезон

Все сериалы

все сериалы на PB.wtf

RePack

FAR CRY 5

Anonymous, добрый день, мы не успеваем собрать деньги на оплату серверов за декабрь и январь, помогите нам пожалуйста в это трудное время. В качестве благодарности мы отключим Вам всю рекламу на сайте (укажите свой ник в строку Ваше имя)!

×
  
Magnet ссылка

Яркость / Bright (Дэвид Эйр) [2017, фантастика, фэнтези, боевик, триллер, криминал, WEB-DLRip] MVO [AlexFilm] pb.wtf

Яркость через торрент pb.wtf

Размер: 1.38 GB | Добавлен: 3 года назад | Торрент скачан:826 раз
Скачать  

03-01-2018 21:12 Яркость Скачать торрент  

Яркость / BrightГод выпуска: 2017
Страна: США
Жанр: фантастика, фэнтези, боевик, триллер, криминал
Продолжительность: 01:57:46
Перевод: Профессиональный многоголосый - скриншот  
Субтитры:отсутствуют
***Примечание: Без рекламы.

Режиссер: Дэвид Эйр

rating

В ролях:

Уилл Смит, Нуми Рапас, Джоэл Эдгертон, Люси Фрай, Джей Эрнандес, Эдгар Рамирес, Айк Баринхолц, Вероника Нго, Хэппи Андерсон, Брэд Уильям Хенке

Описание:

Действие разворачивается в Лос-Анджелесе, в вымышленном фантастическом мире, где царствуют не только высокие технологии, но и магия. В городе бок о бок с людьми живут эльфы, орки и другие сверхъестественные существа. Главный герой служит в полицейском департаменте, в специальном отделе, занимающимся раскрытием преступлений, в которых замешаны магические силы. Пытаясь раскрыть очередное дело, он вынужден объединиться с орком. Вместе им предстоит найти и защитить древний мистический артефакт, обладающий могущественными способностями, от рук злоумышленников.

Качество: WEB-DLRip
Формат: AVI
Видео кодек: XviD
Аудио кодек: MP3

Видео: 720x304 at 24.000 fps, XviD, ~1403 kbps avg
Аудио#1: Russian: 48 kHz, MP3, 2/0 (L,R) ch, ~128 kbps avg |Многоголосый закадровый, AlexFilm|
Аудио#2: English: 48 kHz, MP3, 2/0 (L,R) ch, ~128 kbps avg
скриншот   скриншот   скриншот   скриншот  

Общее
Полное имя : C:\Bright.2017.WEB-DLRip.Rus.Eng.AlexFilm.avi
Формат : AVI
Формат/Информация : Audio Video Interleave
Размер файла : 1,38 Гбайт
Продолжительность : 1 ч. 57 м.
Общий поток : 1673 Кбит/сек
Название фильма : Bright @ AlexFilm
Программа кодирования : VirtualDubMod 1.5.10.2 (build 2540/release)
Библиотека кодирования : VirtualDubMod build 2540/release

Видео
Идентификатор : 0
Формат : MPEG-4 Visual
Профиль формата : Advanced Simple@L5
Параметр BVOP формата : Нет
Параметр QPel формата : Нет
Параметр GMC формата : Без точки перехода
Параметр матрицы формата : Default (MPEG)
Идентификатор кодека : XVID
Идентификатор кодека/Подсказка : XviD
Продолжительность : 1 ч. 57 м.
Битрейт : 1403 Кбит/сек
Ширина : 720 пикселей
Высота : 304 пикселя
Соотношение сторон : 2,35:1
Частота кадров : 24,000 кадра/сек
Цветовое пространство : YUV
Субдискретизация насыщенности : 4:2:0
Битовая глубина : 8 бит
Тип развёртки : Прогрессивная
Метод сжатия : С потерями
Бит/(Пиксели*Кадры) : 0.267
Размер потока : 1,15 Гбайт (84%)
Библиотека кодирования : XviD 73

Аудио #1
Идентификатор : 1
Формат : MPEG Audio
Версия формата : Version 1
Профиль формата : Layer 3
Режим : Joint stereo
Расширение режима : MS Stereo
Идентификатор кодека : 55
Идентификатор кодека/Подсказка : MP3
Продолжительность : 1 ч. 57 м.
Вид битрейта : Постоянный
Битрейт : 128 Кбит/сек
Каналы : 2 канала
Частота : 48,0 КГц
Метод сжатия : С потерями
Размер потока : 108 Мбайт (8%)
Выравнивание : Соединение по промежуткам
Продолжительность промежутка : 42 мс. (1,00 видеокадр)
Время предзагрузки промежутка : 504 мс.
Заголовок : Russian (AlexFilm)
Библиотека кодирования : LAME3.99r
Настройки программы : -m j -V 4 -q 3 -lowpass 18 -b 128

Аудио #2
Идентификатор : 2
Формат : MPEG Audio
Версия формата : Version 1
Профиль формата : Layer 3
Режим : Joint stereo
Расширение режима : MS Stereo
Идентификатор кодека : 55
Идентификатор кодека/Подсказка : MP3
Продолжительность : 1 ч. 57 м.
Вид битрейта : Постоянный
Битрейт : 128 Кбит/сек
Каналы : 2 канала
Частота : 48,0 КГц
Метод сжатия : С потерями
Размер потока : 108 Мбайт (8%)
Выравнивание : Соединение по промежуткам
Продолжительность промежутка : 42 мс. (1,00 видеокадр)
Время предзагрузки промежутка : 504 мс.
Заголовок : English
Библиотека кодирования : LAME3.90.3
pb.wtf



Скачать Яркость через торрент http://i3.imageban.ru/out/2017/12/23/1cf3138a00f48806103e7a7d2a8f34ab.png Скачать фильм Яркость через торрент бесплантно в хорошем качестве Описание: Действие разворачивается в Лос-Анджелесе, в вымышленном фантастическом мире, где царствуют не только высокие технологии, но и ... 9.4 10 21
Info! Золотая раздача, скачанное не засчитывается.
Торрент: Зарегистрирован [2018-01-03 21:12] · скачан: 826 раз
Статус: √ проверено
Размер: 1.38 GB
Как cкачать? Как скачать Яркость через торрент | UTorrent

% Раздел Тема Автор DL S | L
Фильмы 2017 [DVDrip, WEB-DLRip, HDrip] (DUB, MVO) [ 1.55 GB ] Яркость / Bright [2017 WEB-DLRip-AVC] MVO [HDRezka Studio] bober100 Скачать
2 | 0
Ultra HD (UHD: 2K, 4K, 8K) — видео сверхвысокой чёткости [ 23.32 GB ] Яркость / Bright [2017 UHD WEBRip 2160p] MVO [BaibaKo] + ENG + Subs Loc387 Скачать
1 | 0
Ultra HD (UHD: 2K, 4K, 8K) — видео сверхвысокой чёткости [ 11.78 GB ] Яркость / Bright [2017 UHD WEBRip 2160p] 6xMVO sheker187 Скачать
1 | 0
Фильмы (WEB-DL 720p, 1080p) [ 6.98 GB ] Яркость / Bright [2017 WEBRip 1080p] MVO [Jaskier] bober100 Скачать
2 | 0
Фильмы (WEB-DL 720p, 1080p) [ 3.62 GB ] Яркость / Bright [2017 WEBRip 720p] MVO [Jaskier] bober100 Скачать
2 | 0
Фильмы 2017 [DVDrip, WEB-DLRip, HDrip] (DUB, MVO) [ 1.46 GB ] Яркость / Bright [2017 WEBRip] MVO [Jaskier] bober100 Скачать
1 | 0
Фильмы (WEB-DL 720p, 1080p) [ 3.52 GB ] Яркость / Bright [2017 WEBRip 720p] MVO [HDrezka Studio] WorldSM Скачать
2 | 0


Последний раз редактировалось: bober100 (2018-01-04 05:24), всего редактировалось 1 раз

28-11-2019 20:33  

Отключить всю рекламу на сайте

03-01-2018 23:56 Яркость Скачать торрент  

не уж то закадрового дождался, осталось пикселей нарумянить),а семпл можно, звук посмотреть)pb.wtf



04-01-2018 00:33 Яркость Скачать торрент  

GuruBrain писал(а):

не уж то закадрового дождался, осталось пикселей нарумянить),а семпл можно, звук посмотреть)

Без проблем)pb.wtf



04-01-2018 01:43 Яркость Скачать торрент  

фильм ни чего так,ожидал шлака низкопробного,а получился смотрибельный фильмецpb.wtf



04-01-2018 06:56 Яркость Скачать торрент  

Ожидания не оправдались, Уил Смит походу в туже яму идет как кейдж, увилисpb.wtf



04-01-2018 08:27 Яркость Скачать торрент  

А когда дублированный будет?pb.wtf



    Дорогой пользователь! Огромная просьба, поблагодарите релизера, оцените раздачу и оставьте свои комментарий, если Вы скачали Яркость через торрент бесплатно! Внесите свою лепту в развитие PiratBit!
    Комментировать посты могут только пользователи прошедшие не сложную регистрацию
    Показать сообщения:    

    Яркость через торрент
    Скачать бесплатно Яркость
    Яркость скачать торрент
    Яркость смотреть онлайн
    Cкачать фильм Яркость бесплатно
    Яркость скачать торрент в хорошем качестве
    Яркость смотреть онлайн бесплатно в хорошем качестве


    Вы не можете начинать темы
    Вы не можете отвечать на сообщения
    Вы не можете редактировать свои сообщения
    Вы не можете удалять свои сообщения
    Вы не можете голосовать в опросах
    Вы не можете прикреплять файлы к сообщениям
    Вы можете скачивать файлы