Ссылка на приватное зеркало нашего сайта всего за 1$. Внимание количество ограничено!!!

2 сезон

iTunes

1 сезон

1

2 сезон

2 сезон

iTunes

1 сезон

RePack

30

Новинка

ВАЖНО

ИГРА 18+

pack

RePack

MK11
pack

Забери бонус

RePack

jed

!!Акция!!

Alien_Rage

RePack

fifa19

RePack

Assassins Creed: Odyssey

RePack

NEED FOR SPEED™ PAYBACK

4 сезон

9 сезон

Бесстыжие 9 сезон

Все сериалы

все сериалы на PB.wtf

RePack

FAR CRY 5
  

Между нами горы / The Mountain Between Us (Хани Абу-Ассад) [2017, боевик, триллер, драма, мелодрама, приключения, BD Remux 1080p] MVO [Paradox&Omskbird] +DUB [iTunes] pb.wtf

Между нами горы через торрент pb.wtf

Размер: 22.84 GB | Добавлен: 2 года 10 мес. назад | Торрент скачан:229 раз
Скачать  

04-01-2018 05:04 Между нами горы Скачать торрент  

Между нами горы / The Mountain Between UsГод выпуска: 2017
Страна: США
Жанр: боевик, триллер, драма, мелодрама, приключения
Продолжительность: 01:51:49
Перевод:

#1: Дублированный | iTunes
#2: Любительский многоголосый | Paradox&Omskbird

Субтитры: Русские (full), английские

Режиссер: Хани Абу-Ассад

rating

В ролях:

Идрис Эльба, Кейт Уинслет, Бо Бриджес, Дермот Малруни, Линда Соренсон, Винсент Гэйл, Марси Т. Хаус, Ли Мадждуб, Андрес Джозеф

Описание:

Бен и Алекс, уцелевшие после авиакатастрофы, должны найти общий язык, чтобы выжить в экстремальных условиях далеких заснеженных гор. Когда они понимают, что на помощь к ним никто не придет, они вынуждены отправиться в опасный путь длиной в сотни километров. В борьбе за жизнь между двумя еще вчера незнакомыми людьми неожиданно возникает притяжение.

Качество: BD Remux 1080p
Формат: MKV

Видео: MPEG-4 AVC, 1920x1080, 24.5 Mbit/s, 23.976 fps
Аудио#1: 48 kHz, AC3, 5.1, 384 Kbps | Дублированный | iTunes | RUS |
Аудио#2: 48 kHz, AC3, 2.0, 192 Kbps | Paradox&Omskbird | RUS |
Аудио#3: 48 kHz, DTS, 7.1, 4142 Kbps | Оригинал | ENG |
скриншот   скриншот   скриншот   скриншот   скриншот  

General
Unique ID : 38372802190399785637673569638174522097 (0x1CDE55378C6F0E8945814B2232557AF1)
Complete name : G:VideoSSDThe.Mountain.Between.Us.2017.BDREMUX.1080p.ExKinoRay.mkv
Format : Matroska
Format version : Version 4 / Version 2
File size : 22.8 GiB
Duration : 1 h 51 min
Overall bit rate mode : Variable
Overall bit rate : 29.2 Mb/s
Movie name : The Mountain Between Us from ExKinoRay
Encoded date : UTC 2018-01-04 02:13:13
Writing application : mkvmerge v19.0.0 ('Brave Captain') 64-bit
Writing library : libebml v1.3.5 + libmatroska v1.4.8

Video
ID : 1
Format : AVC
Format/Info : Advanced Video Codec
Format profile : High@L4.1
Format settings : CABAC / 2 Ref Frames
Format settings, CABAC : Yes
Format settings, ReFrames : 2 frames
Codec ID : V_MPEG4/ISO/AVC
Duration : 1 h 51 min
Bit rate mode : Variable
Bit rate : 24.5 Mb/s
Width : 1 920 pixels
Height : 1 080 pixels
Display aspect ratio : 16:9
Frame rate mode : Constant
Frame rate : 23.976 (24000/1001) FPS
Color space : YUV
Chroma subsampling : 4:2:0
Bit depth : 8 bits
Scan type : Progressive
Bits/(Pixel*Frame) : 0.493
Stream size : 19.1 GiB (84%)
Language : English
Default : Yes
Forced : No

Audio #1
ID : 2
Format : AC-3
Format/Info : Audio Coding 3
Codec ID : A_AC3
Duration : 1 h 51 min
Bit rate mode : Constant
Bit rate : 384 kb/s
Channel(s) : 6 channels
Channel positions : Front: L C R, Side: L R, LFE
Sampling rate : 48.0 kHz
Frame rate : 31.250 FPS (1536 SPF)
Bit depth : 16 bits
Compression mode : Lossy
Stream size : 307 MiB (1%)
Title : iTunes
Language : Russian
Service kind : Complete Main
Default : Yes
Forced : No

Audio #2
ID : 3
Format : AC-3
Format/Info : Audio Coding 3
Codec ID : A_AC3
Duration : 1 h 51 min
Bit rate mode : Constant
Bit rate : 192 kb/s
Channel(s) : 2 channels
Channel positions : Front: L R
Sampling rate : 48.0 kHz
Frame rate : 31.250 FPS (1536 SPF)
Bit depth : 16 bits
Compression mode : Lossy
Stream size : 154 MiB (1%)
Title : MVO
Language : Russian
Service kind : Complete Main
Default : No
Forced : No

Audio #3
ID : 4
Format : DTS
Format/Info : Digital Theater Systems
Format profile : MA / Core
Codec ID : A_DTS
Duration : 1 h 51 min
Bit rate mode : Variable / Constant
Bit rate : 4 142 kb/s / 1 509 kb/s
Channel(s) : 8 channels / 6 channels
Channel positions : Front: L C R, Side: L R, Back: L R, LFE / Front: L C R, Side: L R, LFE
Sampling rate : 48.0 kHz
Frame rate : 93.750 FPS (512 SPF)
Bit depth : 24 bits
Compression mode : Lossless / Lossy
Stream size : 3.24 GiB (14%)
Title : Original
Language : English
Default : No
Forced : No

Text #1
ID : 5
Format : UTF-8
Codec ID : S_TEXT/UTF8
Codec ID/Info : UTF-8 Plain Text
Duration : 1 h 51 min
Bit rate : 46 b/s
Count of elements : 985
Stream size : 37.8 KiB (0%)
Title : Full
Language : Russian
Default : No
Forced : No

Text #2
ID : 6
Format : UTF-8
Codec ID : S_TEXT/UTF8
Codec ID/Info : UTF-8 Plain Text
Duration : 1 h 47 min
Bit rate : 33 b/s
Count of elements : 1070
Stream size : 26.7 KiB (0%)
Title : Full
Language : English
Default : No
Forced : No

Text #3
ID : 7
Format : UTF-8
Codec ID : S_TEXT/UTF8
Codec ID/Info : UTF-8 Plain Text
Duration : 1 h 48 min
Bit rate : 41 b/s
Count of elements : 1343
Stream size : 32.9 KiB (0%)
Title : SDH
Language : English
Default : No
Forced : No

Menu
00:00:00.000 : en:00:00:00.000
00:02:58.595 : en:00:02:58.595
00:08:52.782 : en:00:08:52.782
00:13:15.378 : en:00:13:15.378
00:16:21.480 : en:00:16:21.480
00:21:36.253 : en:00:21:36.253
00:26:51.985 : en:00:26:51.985
00:31:53.370 : en:00:31:53.370
00:38:56.084 : en:00:38:56.084
00:43:45.373 : en:00:43:45.373
00:51:04.311 : en:00:51:04.311
00:57:28.737 : en:00:57:28.737
01:01:22.721 : en:01:01:22.721
01:04:39.417 : en:01:04:39.417
01:07:41.057 : en:01:07:41.057
01:11:06.429 : en:01:11:06.429
01:14:56.534 : en:01:14:56.534
01:19:15.125 : en:01:19:15.125
01:23:48.398 : en:01:23:48.398
01:27:52.476 : en:01:27:52.476
01:32:13.570 : en:01:32:13.570
01:35:41.653 : en:01:35:41.653
01:41:48.269 : en:01:41:48.269
01:45:22.483 : en:01:45:22.483

pb.wtf



Скачать Между нами горы через торрент http://img12.lostpic.net/2018/01/04/5129326c50ddec6259b2fb6f36436936.jpg Скачать фильм Между нами горы через торрент бесплантно в хорошем качестве Описание: Бен и Алекс, уцелевшие после авиакатастрофы, должны найти общий язык, чтобы выжить в экстремальных условиях далеких заснеженных ... 10 10 8
Торрент: Зарегистрирован [2018-01-04 05:04] · скачан: 229 раз
Статус: √ проверено
Размер: 22.84 GB
Как cкачать? Как скачать Между нами горы через торрент | qTorrent

% Раздел Тема Автор DL S | L
Фильмы 2017 [DVDrip, WEB-DLRip, HDrip] (DUB, MVO) [ 1.95 GB ] Между нами горы / The Mountain Between Us [2017 BDRip-AVC] - ExKinoRay Enigma2010 Скачать
2 | 0
Фильмы [HD 720p, 1080p] (Хороший звук DUB, MVO) [ 6.59 GB ] Между нами горы / The Mountain Between Us [2017 BDRip 1080p] DUB [] bober100 Скачать
3 | 0
Фильмы 2017 [DVDrip, WEB-DLRip, HDrip] (DUB, MVO) [ 1.46 GB ] Между нами горы / The Mountain Between Us [2017 BDRip] - [] Twi7ter Скачать
1 | 0
Ultra HD (UHD: 2K, 4K, 8K) — видео сверхвысокой чёткости [ 30.95 GB ] Между нами горы / The Mountain Between Us [2017 UHD BDRemux 2160p] MVO [Paradox&Omskbird] + bober100 Скачать
2 | 0
Ultra HD (UHD: 2K, 4K, 8K) — видео сверхвысокой чёткости [ 31.93 GB ] Между нами горы / The Mountain Between Us [2017 UHD BDRemux 2160p] DUB + MVO sheker187 Скачать
1 | 0
Фильмы [HD 720p, 1080p] (Хороший звук DUB, MVO) [ 10.5 GB ] Между нами горы / The Mountain Between Us [2017 BDRip 1080p] MVO [Paradox&Omskbird] + bober100 Скачать
1 | 0
T Фильмы с украинским озвучиванием [ 7.85 GB ] Между нами горы / The Mountain Between Us [2017 BDRip 1080p] [Ukr DUB] [Line] killermax2013 Скачать
1 | 0

28-11-2019 20:33  

Отключить всю рекламу на сайте

    Дорогой пользователь! Огромная просьба, поблагодарите релизера, оцените раздачу и оставьте свои комментарий, если Вы скачали Между нами горы через торрент бесплатно! Внесите свою лепту в развитие PiratBit!
    Комментировать посты могут только пользователи прошедшие не сложную регистрацию
    Показать сообщения:    

    Между нами горы через торрент
    Скачать бесплатно Между нами горы
    Между нами горы скачать торрент
    Между нами горы смотреть онлайн
    Cкачать фильм Между нами горы бесплатно
    Между нами горы скачать торрент в хорошем качестве
    Между нами горы смотреть онлайн бесплатно в хорошем качестве


    Вы не можете начинать темы
    Вы не можете отвечать на сообщения
    Вы не можете редактировать свои сообщения
    Вы не можете удалять свои сообщения
    Вы не можете голосовать в опросах
    Вы не можете прикреплять файлы к сообщениям
    Вы можете скачивать файлы