Ссылка на приватное зеркало нашего сайта всего за 1$. Внимание количество ограничено!!!

2 сезон

iTunes

1 сезон

1

iTunes

iTunes

iTunes

1 сезон

RePack

30

ИГРА 18+

pack

ВАЖНО

!!Акция!!

Alien_RageХит недели

RePack

MK11
pack

Забери бонус

RePack

jed

!!Акция!!

Alien_Rage

RePack

fifa19

RePack

Assassins Creed: Odyssey

RePack

NEED FOR SPEED™ PAYBACK

4 сезон

9 сезон

Бесстыжие 9 сезон

Все сериалы

все сериалы на PB.wtf

RePack

FAR CRY 5
  

Очень страшное кино 3 / Scary Movie 3 (Дэвид Цукер) [2003, ужасы, комедия, BDRip 1080p by msltel] DUB, MVO, DVO, AVO pb.wtf

Очень страшное кино 3 через торрент pb.wtf

Размер: 11.76 GB | Добавлен: 2 года 9 мес. назад | Торрент скачан:37 раз
Скачать  

04-01-2018 06:43 Очень страшное кино 3 Скачать торрент  

Название: Очень страшное кино 3
Оригинальное название: Scary Movie 3
Год выпуска: 2003
Страна: США, Канада
Жанр: ужасы, комедия
Продолжительность: 01:25:41
Перевод: дублированный, профессиональный многоголосый, профессиональный двухголосый, авторский

Режиссер: Дэвид Цукер
В ролях: Памела Андерсон, Дженни МакКарти, Марни Энг, Чарли Шин, Саймон Рекс, Джина Баллард, Джереми Пивен, Анна Фэрис, Тимоти Стэк, Элейн Климашевски, Дайан Климашевски, Камрин Менхейм, Дрю Микуска, Реджина Холл, Даррел Хэммонд, Энтони Андерсон, Декстер Белл, Кевин Харт, Дейм Ли, Дорон Белл, Аджай Найду, Дэнис Ричардс, Уильям С. Тейлор, Патриция Идлетт, Дэвид Эдвардс, Фрэнк Ч. Тёрнер, Моника Диллон, Лори Стюарт, Джим Бремнер, Фил Дорнфелд, Куин Латифа, Эдди Гриффин, Эдвард Мосс, Ди Джей Джексон, Лесли Нильсен, Д.Л. Хьюли, Джа Рул, Джордж Карлин, Трой Йорк, Марко Сориано, Клифф Соломон, Байрон Чиф-Мун, Долли Мэдсен, Джон Хэйнсуорт, Беверли Брюэр

О фильме: Журналистка Синди Кэмпбелл охвачена желанием сделать скандальный репортаж о каком-нибудь мировом заговоре и открыть самые секретные материалы! Кто ищет, тот всегда находит. Вскоре Синди становится свидетельницей необъяснимых явлений. На Землю вот-вот высадится десант зловещих инопланетян; на полях появились странные концентрические круги; некий Избранный пророчит нехорошее всему человечеству; дети со странными глазами пугают взрослых; под угрозой жизнь самого Президента; а амбициозные белые рэперы совершили подозрительный прорыв в мире шоу-бизнеса - зло наступает со всех сторон, и Синди должна сражаться, чтобы спасти мир ещё раз!...



Качество: BDRip 1080p
Формат: MKV
Видео: MPEG-4 AVC, 15.8 Mбит/с, 1920x1080
Аудио 1: русский, DTS, 1509 kbps, 6 ch, 48 kHz [дублированный, Мосфильм]
Аудио 2: русский, AC3, 192 kbps, 2 ch, 48 kHz [профессиональный многоголосый]
Аудио 3: русский, AC3, 448 kbps, 6 ch, 48 kHz [профессиональный двухголосый]
Аудио 4: русский, AC3, 192 kbps, 2 ch, 48 kHz [авторский, Антон Карповский]
Аудио 5: английский, DTS, 1509 kbps, 6 ch, 48 kHz [оригинал]
Субтитры 1: русские
Субтитры 2: английские
Неименованные главы/чаптеры.
Общее
Уникальный идентификатор : 182216118135863680864905796755112040319 (0x89158C3E605293279C96423F64A7977F)
Полное имя : D:\Video\Очень страшное кино 3.2003.BDRip.1080p by msltel.mkv
Формат : Matroska
Версия формата : Version 4 / Version 2
Размер файла : 11,8 Гбайт
Продолжительность : 1 ч. 25 м.
Общий поток : 19,7 Мбит/сек
Название фильма : Rip by msltel
Дата кодирования : UTC 2018-01-04 03:10:33
Программа кодирования : mkvmerge v8.2.0 ('World of Adventure') 64bit
Библиотека кодирования : libebml v1.3.1 + libmatroska v1.4.2

Видео
Идентификатор : 1
Формат : AVC
Формат/Информация : Advanced Video Codec
Профиль формата : High@L4.1
Настройки формата : CABAC / 4 Ref Frames
Параметр CABAC формата : Да
Параметр RefFrames формата : 4 кадра
Идентификатор кодека : V_MPEG4/ISO/AVC
Продолжительность : 1 ч. 25 м.
Битрейт : 15,8 Мбит/сек
Ширина : 1920 пикселей
Высота : 1080 пикселей
Соотношение сторон : 16:9
Режим частоты кадров : Постоянный
Частота кадров : 23,976 (24000/1001) кадра/сек
Цветовое пространство : YUV
Субдискретизация насыщенности : 4:2:0
Битовая глубина : 8 бит
Тип развёртки : Прогрессивная
Бит/(Пиксели*Кадры) : 0.318
Размер потока : 9,46 Гбайт (80%)
Библиотека кодирования : x264 core 146 r2538 121396c
Настройки программы : cabac=1 / ref=4 / deblock=1:-3:-2 / analyse=0x3:0x113 / me=umh / subme=11 / psy=1 / psy_rd=1.00:0.15 / mixed_ref=1 / me_range=32 / chroma_me=1 / trellis=2 / 8x8dct=1 / cqm=0 / deadzone=21,11 / fast_pskip=0 / chroma_qp_offset=-3 / threads=6 / lookahead_threads=1 / sliced_threads=0 / nr=0 / decimate=1 / interlaced=0 / bluray_compat=0 / constrained_intra=0 / bframes=8 / b_pyramid=2 / b_adapt=2 / b_bias=0 / direct=1 / weightb=1 / open_gop=0 / weightp=2 / keyint=230 / keyint_min=23 / scenecut=40 / intra_refresh=0 / rc_lookahead=40 / rc=crf / mbtree=0 / crf=17.7 / qcomp=0.60 / qpmin=0 / qpmax=69 / qpstep=4 / vbv_maxrate=62500 / vbv_bufsize=78125 / crf_max=0.0 / nal_hrd=none / filler=0 / ip_ratio=1.40 / pb_ratio=1.30 / aq=1:1.00
Язык : English
Default : Да
Forced : Нет

Аудио #1
Идентификатор : 2
Формат : DTS
Формат/Информация : Digital Theater Systems
Идентификатор кодека : A_DTS
Продолжительность : 1 ч. 25 м.
Вид битрейта : Постоянный
Битрейт : 1509 Кбит/сек
Каналы : 6 каналов
Расположение каналов : Front: L C R, Side: L R, LFE
Частота : 48,0 КГц
Частота кадров : 93,750 кадра/сек (512 SPF)
Битовая глубина : 24 бит
Метод сжатия : С потерями
Размер потока : 925 Мбайт (8%)
Заголовок : DUB.Мосфильм
Язык : Russian
Default : Да
Forced : Нет

Аудио #2
Идентификатор : 3
Формат : AC-3
Формат/Информация : Audio Coding 3
Идентификатор кодека : A_AC3
Продолжительность : 1 ч. 25 м.
Вид битрейта : Постоянный
Битрейт : 192 Кбит/сек
Каналы : 2 канала
Расположение каналов : Front: L R
Частота : 48,0 КГц
Частота кадров : 31,250 кадров/сек (1536 SPF)
Битовая глубина : 16 бит
Метод сжатия : С потерями
Размер потока : 118 Мбайт (1%)
Заголовок : MVO
Язык : Russian
ServiceKind/String : Complete Main
Default : Нет
Forced : Нет

Аудио #3
Идентификатор : 4
Формат : AC-3
Формат/Информация : Audio Coding 3
Идентификатор кодека : A_AC3
Продолжительность : 1 ч. 25 м.
Вид битрейта : Постоянный
Битрейт : 448 Кбит/сек
Каналы : 6 каналов
Расположение каналов : Front: L C R, Side: L R, LFE
Частота : 48,0 КГц
Частота кадров : 31,250 кадров/сек (1536 SPF)
Битовая глубина : 16 бит
Метод сжатия : С потерями
Размер потока : 275 Мбайт (2%)
Заголовок : DVO
Язык : Russian
ServiceKind/String : Complete Main
Default : Нет
Forced : Нет

Аудио #4
Идентификатор : 5
Формат : AC-3
Формат/Информация : Audio Coding 3
Идентификатор кодека : A_AC3
Продолжительность : 1 ч. 25 м.
Вид битрейта : Постоянный
Битрейт : 192 Кбит/сек
Каналы : 2 канала
Расположение каналов : Front: L R
Частота : 48,0 КГц
Частота кадров : 31,250 кадров/сек (1536 SPF)
Битовая глубина : 16 бит
Метод сжатия : С потерями
Размер потока : 118 Мбайт (1%)
Заголовок : Антон Карповский
Язык : Russian
ServiceKind/String : Complete Main
Default : Нет
Forced : Нет

Аудио #5
Идентификатор : 6
Формат : DTS
Формат/Информация : Digital Theater Systems
Идентификатор кодека : A_DTS
Продолжительность : 1 ч. 25 м.
Вид битрейта : Постоянный
Битрейт : 1509 Кбит/сек
Каналы : 6 каналов
Расположение каналов : Front: L C R, Side: L R, LFE
Частота : 48,0 КГц
Частота кадров : 93,750 кадра/сек (512 SPF)
Битовая глубина : 24 бит
Метод сжатия : С потерями
Размер потока : 925 Мбайт (8%)
Заголовок : original
Язык : English
Default : Нет
Forced : Нет

Текст #1
Идентификатор : 7
Формат : UTF-8
Идентификатор кодека : S_TEXT/UTF8
Идентификатор кодека/Информация : UTF-8 Plain Text
Продолжительность : 1 ч. 12 м.
Битрейт : 98 бит/сек
ElementCount : 1037
Размер потока : 52,6 Кбайт (0%)
Заголовок : русские
Язык : Russian
Default : Нет
Forced : Нет

Текст #2
Идентификатор : 8
Формат : UTF-8
Идентификатор кодека : S_TEXT/UTF8
Идентификатор кодека/Информация : UTF-8 Plain Text
Продолжительность : 1 ч. 15 м.
Битрейт : 78 бит/сек
ElementCount : 1259
Размер потока : 43,5 Кбайт (0%)
Заголовок : английские
Язык : English
Default : Нет
Forced : Нет

Меню
00:00:00.000 : :Chapter 01
00:04:47.245 : :Chapter 02
00:07:15.268 : :Chapter 03
00:10:27.460 : :Chapter 04
00:15:35.935 : :Chapter 05
00:24:01.773 : :Chapter 06
00:28:40.552 : :Chapter 07
00:33:21.874 : :Chapter 08
00:37:51.769 : :Chapter 09
00:43:16.677 : :Chapter 10
00:49:13.325 : :Chapter 11
00:52:58.091 : :Chapter 12
00:54:21.633 : :Chapter 13
00:58:49.025 : :Chapter 14
01:01:50.707 : :Chapter 15
01:07:16.198 : :Chapter 16
01:10:33.604 : :Chapter 17
01:16:12.526 : :Chapter 18
01:25:40.093 : :Chapter 19
pb.wtf



Скачать Очень страшное кино 3 через торрент https://c.radikal.ru/c41/1801/57/df83536fd2c6.jpg Скачать фильм Очень страшное кино 3 через торрент бесплантно в хорошем качестве О фильме: Журналистка Синди Кэмпбелл охвачена желанием сделать скандальный репортаж о каком-нибудь мировом заговоре и открыть самые ... 10 10 3
Info! Золотая раздача, скачанное не засчитывается.
Торрент: Зарегистрирован [2018-01-04 06:43] · скачан: 37 раз
Статус: √ проверено
Размер: 11.76 GB
Как cкачать? Как скачать Очень страшное кино 3 через торрент | qTorrent

% Раздел Тема Автор DL S | L
Фильмы [HD 720p, 1080p] (Хороший звук DUB, MVO) [ 4.55 GB ] Очень страшное кино 3 / Scary Movie 3 [2003 BDRip 720p by msltel] DUB MVO DVO AVO msltel Скачать
1 | 0

28-11-2019 20:33  

Отключить всю рекламу на сайте

    Дорогой пользователь! Огромная просьба, поблагодарите релизера, оцените раздачу и оставьте свои комментарий, если Вы скачали Очень страшное кино 3 через торрент бесплатно! Внесите свою лепту в развитие PiratBit!
    Комментировать посты могут только пользователи прошедшие не сложную регистрацию
    Показать сообщения:    

    Очень страшное кино 3 через торрент
    Скачать бесплатно Очень страшное кино 3
    Очень страшное кино 3 скачать торрент
    Очень страшное кино 3 смотреть онлайн
    Cкачать фильм Очень страшное кино 3 бесплатно
    Очень страшное кино 3 скачать торрент в хорошем качестве
    Очень страшное кино 3 смотреть онлайн бесплатно в хорошем качестве


    Вы не можете начинать темы
    Вы не можете отвечать на сообщения
    Вы не можете редактировать свои сообщения
    Вы не можете удалять свои сообщения
    Вы не можете голосовать в опросах
    Вы не можете прикреплять файлы к сообщениям
    Вы можете скачивать файлы