Ссылка на приватное зеркало всего за 1$. Внимание количество ограничено!!!

OK

1+1

iTunes

мы

OK

1

WEB-DLRip

Джокер

Пифагор

Ведьмак / The Witcher сериал

Лицензия

ПШазам

ОК

Оно 2

iTunes

30
pack

Вам бонус

ВАЖНО

!!Акция!!

Alien_RageХит недели

RePack

Resident Evil 21

ИГРА 18+

pack

RePack

jed

RePack

fifa19

RePack

Assassins Creed: Odyssey

RePack

NEED FOR SPEED™ PAYBACK

4 сезон

9 сезон

Бесстыжие 9 сезон

Все сериалы

все сериалы на PB.wtf

RePack

FAR CRY 5
  

Схватка / Scramble (Ной Скотт) [2017, криминал, WEB-DL 720p] MVO ["Синема УС"] pb.wtf

Схватка через торрент pb.wtf

Размер: 3.26 GB | Добавлен: 2 года назад | Торрент скачан:71 раз
Скачать  

04-01-2018 09:25 Схватка Скачать торрент  

Схватка / ScrambleГод выпуска: 2017
Страна: США
Жанр: криминал
Продолжительность: 01:43:01
Перевод: Любительский (многоголосый) ["Синема УС"]
Субтитры: отсутствуют

Режиссер: Ной Скотт

rating

В ролях:

Кортни Гейнс, Дэмиен Пакер, Ирина Воронина, Саманта Стюарт, Дженна Уиллис, Кевин МакКоркл, Такато Ёнэмото, Донат Рикеттс, Марисса фон Блейкен, Андрей Ивченко

Описание:

Жизнь Фрэнка спокойно идет своим чередом, когда внезапно его девушку похищает подпольная преступная банда. Чтобы спасти ее, Фрэнку нужна немалая сумма денег, которую он одалживает у знакомого бизнесмена, но он и понятия не имеет, в какие разборки при этом ввязывается.

Качество: WEB-DL 720p
Формат: MKV
Видео кодек: H.264
Аудио кодек: AC3

Видео: 4150 Kбит/с, 1280x674
Аудио#1: Русский, (AC3, 2 ch, 384 Кбит/с)


скриншот   скриншот   скриншот  

Общее
Уникальный идентификатор : 197017348948554905551745865013347184282 (0x94382943C5D73FEB91989EA6F8CF6E9A)
Полное имя : D:\Scramble.2017.P.WEB-DL.72Op_KOSHARA.mkv
Формат : Matroska
Версия формата : Version 2
Размер файла : 3,26 Гбайт
Продолжительность : 1 ч. 43 м.
Режим общего битрейта : Переменный
Общий поток : 4536 Кбит/сек
Дата кодирования : UTC 2018-01-03 12:28:29
Программа кодирования : mkvmerge v8.3.0 ('Over the Horizon') 64bit
Библиотека кодирования : libebml v1.3.1 + libmatroska v1.4.2

Видео
Идентификатор : 1
Формат : AVC
Формат/Информация : Advanced Video Codec
Профиль формата : High@L4.1
Параметр CABAC формата : Да
Параметр ReFrames формата : 9 кадров
Идентификатор кодека : V_MPEG4/ISO/AVC
Продолжительность : 1 ч. 43 м.
Вид битрейта : Переменный
Битрейт : 4150 Кбит/сек
Максимальный битрейт : 4500 Кбит/сек
Ширина : 1280 пикселей
Высота : 674 пикселя
Соотношение сторон : 1,899
Режим частоты кадров : Постоянный
Частота кадров : 23,976 (24000/1001) кадра/сек
Стандарт вещания : Component
Цветовое пространство : YUV
Субдискретизация насыщенности : 4:2:0
Битовая глубина : 8 бит
Тип развёртки : Прогрессивная
Бит/(Пиксели*Кадры) : 0.196
Размер потока : 2,92 Гбайт (90%)
Default : Да
Forced : Нет
Цветовой диапазон : Limited
Основные цвета : BT.709
Характеристики трансфера : BT.709
Коэффициенты матрицы : BT.709

Аудио
Идентификатор : 2
Формат : AC-3
Формат/Информация : Audio Coding 3
Расширение режима : CM (complete main)
Параметр Endianness формата : Big
Идентификатор кодека : A_AC3
Продолжительность : 1 ч. 43 м.
Вид битрейта : Постоянный
Битрейт : 384 Кбит/сек
Каналы : 2 канала
Расположение каналов : Front: L R
Частота : 48,0 КГц
Частота кадров : 31,250 кадров/сек (1536 spf)
Метод сжатия : С потерями
Размер потока : 283 Мбайт (8%)
Default : Да
Forced : Нет

pb.wtf



Скачать Схватка через торрент http://pic1.kartinco.top/images/11/r69v5.jpg Скачать фильм Схватка через торрент бесплантно в хорошем качестве Описание: Жизнь Фрэнка спокойно идет своим чередом, когда внезапно его девушку похищает подпольная преступная банда. Чтобы спасти ее, ... 7.2 10 5
Торрент: Зарегистрирован [2018-01-04 09:25] · скачан: 71 раз
Статус: T временная
Размер: 3.26 GB
Как cкачать? Как скачать Схватка через торрент | qTorrent

% Раздел Тема Автор DL S | L
T Фильмы (мультфильмы) cо спонсором показа (Новинки AVI/MKV) [ 1.37 GB ] Схватка / Scramble [2017 WEB-DLRip] MVO ["Синема УС"] bober100 Скачать
1 | 0

28-11-2019 20:33  

Отключить всю рекламу на сайте

    Дорогой пользователь! Огромная просьба, поблагодарите релизера, оцените раздачу и оставьте свои комментарий, если Вы скачали Схватка через торрент бесплатно! Внесите свою лепту в развитие PiratBit!
    Комментировать посты могут только пользователи прошедшие не сложную регистрацию
    Показать сообщения:    

    Схватка через торрент
    Скачать бесплатно Схватка
    Схватка скачать торрент
    Схватка смотреть онлайн
    Cкачать фильм Схватка бесплатно
    Схватка скачать торрент в хорошем качестве
    Схватка смотреть онлайн бесплатно в хорошем качестве


    Вы не можете начинать темы
    Вы не можете отвечать на сообщения
    Вы не можете редактировать свои сообщения
    Вы не можете удалять свои сообщения
    Вы не можете голосовать в опросах
    Вы не можете прикреплять файлы к сообщениям
    Вы можете скачивать файлы