Ссылка на приватное зеркало нашего сайта всего за 1$. Внимание количество ограничено!!!

2 сезон

iTunes

1 сезон

1

2 сезон

2 сезон

iTunes

1 сезон

RePack

30

Новинка

ВАЖНО

ИГРА 18+

pack

RePack

MK11
pack

Забери бонус

RePack

jed

!!Акция!!

Alien_Rage

RePack

fifa19

RePack

Assassins Creed: Odyssey

RePack

NEED FOR SPEED™ PAYBACK

4 сезон

9 сезон

Бесстыжие 9 сезон

Все сериалы

все сериалы на PB.wtf

RePack

FAR CRY 5
  

МакМафия / McMafia / Сезон 1 / Серии 1-8 из 8 (Джеймс Уоткинс) [2017, триллер, драма, криминал, WEB-DLRip 720р] [MVO] (SDI Media) pb.wtf

МакМафия через торрент pb.wtf

Размер: 13.75 GB | Добавлен: 2 года 9 мес. назад | Торрент скачан:141 раз
Скачать  

04-01-2018 18:55 МакМафия Скачать торрент  

Информация о фильме:

✦ Название: МакМафия
✦ Оригинальное название: McMafia
✦ Год выхода: 2018
✦ Жанр: триллер, драма, криминал
✦ Страна: США, Великобритания / American Movie Classics (AMC), British Broadcasting Corporation (BBC)
✦ Продолжительность: ~ 00:48:00 серия
✦ Перевод: Профессиональный (многоголосый, закадровый) - SDI Media

✦ Режиссер: Джеймс Уоткинс

✦ В ролях: Джеймс Нортон, Дэвид Стрэтэйрн, Джульет Райлэнс, Алексей Серебряков, Мария Шукшина, Ошри Коэн, Мераб Нинидзе, Клиффорд Сэмюэл, Юваль Шарф, Атул Кейл и др.

Описание фильма:

Алекс Гудман, сын русских эмигрантов, пытается выйти из тени своей бывшей мафиозной семейки и создать личный бизнес и семью со своей подругой Ребеккой. Но прошлое семьи даёт о себе знать, и Алекс вынужден внедриться в преступный мир, чтобы защитить тех, кого любит.

rating

Информация о файле:

✦ Формат: MKV
✦ Качество: WEB-DLRip 720p
✦ Видео: MPEG-4 AVC, ~ 4000 Кбит/с, 1280x720, 25.000 fps
✦ Аудио: AC3, 48 KHz, 2 ch, 192 kbps - MVO
✦ Аудио: E-AC3, 48 KHz, 2 ch, 640 kbps - ENG
✦ Субтитры: английские
General
Unique ID : 193901096090265553520078235950189118783 (0x91DFFE22F6395712B2F23507C770053F)
Complete name : F:\McMafia.SD1.Med1a. (2017)\Ma41a.S01E01.720p.SD1.Med1a.mkv
Format : Matroska
Format version : Version 4 / Version 2
File size : 1.93 GiB
Duration : 56 min 13 s
Overall bit rate : 4 925 kb/s
Encoded date : UTC 2018-01-04 07:11:54
Writing application : mkvmerge v8.3.0 ('Over the Horizon') 64bit
Writing library : libebml v1.3.1 + libmatroska v1.4.2

Video
ID : 1
Format : AVC
Format/Info : Advanced Video Codec
Format profile : High@L4.1
Format settings : CABAC / 9 Ref Frames
Format settings, CABAC : Yes
Format settings, RefFrames : 9 frames
Codec ID : V_MPEG4/ISO/AVC
Duration : 56 min 13 s
Bit rate : 3 995 kb/s
Width : 1 280 pixels
Height : 720 pixels
Display aspect ratio : 16:9
Frame rate mode : Constant
Frame rate : 25.000 FPS
Color space : YUV
Chroma subsampling : 4:2:0
Bit depth : 8 bits
Scan type : Progressive
Bits/(Pixel*Frame) : 0.173
Stream size : 1.57 GiB (81%)
Writing library : x264 core 148 r2744 b97ae06
Encoding settings : cabac=1 / ref=9 / deblock=1:-3:-3 / analyse=0x3:0x133 / me=umh / subme=10 / psy=1 / psy_rd=1.00:0.00 / mixed_ref=1 / me_range=48 / chroma_me=1 / trellis=2 / 8x8dct=1 / cqm=0 / deadzone=21,11 / fast_pskip=0 / chroma_qp_offset=-2 / threads=12 / lookahead_threads=2 / sliced_threads=0 / nr=0 / decimate=0 / interlaced=0 / bluray_compat=0 / constrained_intra=0 / bframes=9 / b_pyramid=0 / b_adapt=2 / b_bias=0 / direct=3 / weightb=1 / open_gop=0 / weightp=2 / keyint=250 / keyint_min=25 / scenecut=40 / intra_refresh=0 / rc_lookahead=60 / rc=crf / mbtree=0 / crf=17.0 / qcomp=0.60 / qpmin=10 / qpmax=51 / qpstep=4 / vbv_maxrate=62500 / vbv_bufsize=78125 / crf_max=0.0 / nal_hrd=none / filler=0 / ip_ratio=1.40 / pb_ratio=1.30 / aq=3:0.70
Default : Yes
Forced : No

Audio #1
ID : 2
Format : AC-3
Format/Info : Audio Coding 3
Format settings, Endianness : Big
Codec ID : A_AC3
Duration : 56 min 13 s
Bit rate mode : Constant
Bit rate : 192 kb/s
Channel(s) : 2 channels
Channel positions : Front: L R
Sampling rate : 48.0 kHz
Frame rate : 31.250 FPS (1536 SPF)
Bit depth : 16 bits
Compression mode : Lossy
Stream size : 77.2 MiB (4%)
Language : Russian
Service kind : Complete Main
Default : Yes
Forced : No

Audio #2
ID : 3
Format : E-AC-3
Format/Info : Enhanced Audio Coding 3
Format settings, Endianness : Big
Codec ID : A_EAC3
Duration : 56 min 13 s
Bit rate mode : Constant
Bit rate : 640 kb/s
Channel(s) : 6 channels
Channel positions : Front: L C R, Side: L R, LFE
Sampling rate : 48.0 kHz
Frame rate : 187.500 FPS (256 SPF)
Compression mode : Lossy
Stream size : 257 MiB (13%)
Language : English
Service kind : Complete Main
Default : No
Forced : No

Text
ID : 4
Format : UTF-8
Codec ID : S_TEXT/UTF8
Codec ID/Info : UTF-8 Plain Text
Language : English
Default : No
Forced : No
скриншот  скриншот  скриншот  
Когда раздача ведётся путём добавления новых серий, при каждом добавлении создётся новый торрент. Чтобы начать докачку новой серии, пользователям необходимо сделать следующее:

(1) остановить скачивание,

(2) удалить старый торрент у себя из клиента (старые серии удалять не надо),

(3) скачать новый торрент и запустить его у себя в клиенте вместо старого, при этом указать клиенту путь в старую папку, куда и должно происходить скачивание новых серий.

Ваш клиент при этом должен произвести хеширование (проверку) старой папки (если не производит сам - помогите ему сделать это), и будет докачивать только те серии, которых у вас ещё нет. Старые серии при этом не удаляются, а продолжают раздаваться!

Eсли вы уже удалили старые серии, то предотвратить повторную закачку старых серий можно, отжав галочку в соответсвующих местах при запуске нового торрента. По возможности, желательно не удалять старые серии как можно дольше, чтобы релизёр не столько продолжал раздавать старые серии, а смог сконцентрироваться на новых.
pb.wtf



Скачать МакМафия через торрент http://i101.fastpic.ru/big/2018/0116/2c/9f514953df889078d4e50a4bebecc52c.jpg Скачать фильм МакМафия через торрент бесплантно в хорошем качестве Описание фильма:Алекс Гудман, сын русских эмигрантов, пытается выйти из тени своей бывшей мафиозной семейки и создать личный бизнес и семью ... 10 10 8
Торрент: Зарегистрирован [2018-02-19 13:18] · скачан: 141 раз
Статус: √ проверено
Размер: 13.75 GB
Как cкачать? Как скачать МакМафия через торрент | qTorrent

% Раздел Тема Автор DL S | L
Зарубежные сериалы [ 24.11 GB ] МакМафия / McMafia / Сезон: 1 / Серии: 1-8 из 8 [2018 BDRip 720p] MVO [Good People] bober100 Скачать
1 | 0
Зарубежные сериалы [ 5.47 GB ] МакМафия / McMafia / Сезон: 1 / Серии: 1-8 из 8 [2018 HDRip] MVO [Good People] bober100 Скачать
1 | 0
Зарубежные сериалы [ 7.57 GB ] МакМафия / McMafia / Сезон: 1 / Серии: 1-8 из 8 [2018 BDRip] [MVO] killermax2013 Скачать
1 | 0
Зарубежные сериалы [ 15.1 GB ] МакМафия / McMafia / Сезон: 1 / Серии: 1-8 из 8 [2017 WEBRip 720p] MVO [Jaskier] bober100 Скачать
1 | 0
Зарубежные сериалы [ 25.41 GB ] МакМафия / McMafia / Сезон 1 / Серии 1-8 из 8 [2017 WEBRip 1080p] MVO [BaibaKo] bober100 Скачать
1 | 0
Зарубежные сериалы [ 23.64 GB ] МакМафия / McMafia / Сезон: 1 / Серии: 1-8 из 8 [2017 WEBRip 1080p] MVO [Jaskier] bober100 Скачать
1 | 0
Зарубежные сериалы [ 5.66 GB ] МакМафия / McMafia / Сезон: 1 / Серии: 1-8 из 8 [2017 WEBRip] MVO [Jaskier] bober100 Скачать
1 | 0


Последний раз редактировалось: killermax2013 (2018-02-19 13:18), всего редактировалось 7 раз(а)

28-11-2019 20:33  

Отключить всю рекламу на сайте

04-01-2018 19:58 МакМафия Скачать торрент  

Обложка не отсюдаpb.wtf



04-01-2018 20:27 МакМафия Скачать торрент  

Norton Nord писал(а):

Обложка не отсюда

pb.wtf



15-01-2018 13:50 МакМафия Скачать торрент  

+3pb.wtf



15-01-2018 22:19 МакМафия Скачать торрент  

На одном дыхании..советую!Не удержался и глянул 4 серию)Сюжет не заезженный,главное,чтобы позже все не . Негатив Шукшина вызвала,не ее роль..или просто она мне не нравится))Имхо

з.ы.Картинка с обложки книги чтоль???))pb.wtf



16-01-2018 16:09 МакМафия Скачать торрент  

+4pb.wtf



28-01-2018 09:00 МакМафия Скачать торрент  

+5pb.wtf



29-01-2018 21:31 МакМафия Скачать торрент  

+6pb.wtf



08-02-2018 10:43 МакМафия Скачать торрент  

+7pb.wtf



19-02-2018 13:18 МакМафия Скачать торрент  

+8 pb.wtf



    Дорогой пользователь! Огромная просьба, поблагодарите релизера, оцените раздачу и оставьте свои комментарий, если Вы скачали МакМафия через торрент бесплатно! Внесите свою лепту в развитие PiratBit!
    Комментировать посты могут только пользователи прошедшие не сложную регистрацию
    Показать сообщения:    

    МакМафия через торрент
    Скачать бесплатно МакМафия
    МакМафия скачать торрент
    МакМафия смотреть онлайн
    Cкачать фильм МакМафия бесплатно
    МакМафия скачать торрент в хорошем качестве
    МакМафия смотреть онлайн бесплатно в хорошем качестве


    Вы не можете начинать темы
    Вы не можете отвечать на сообщения
    Вы не можете редактировать свои сообщения
    Вы не можете удалять свои сообщения
    Вы не можете голосовать в опросах
    Вы не можете прикреплять файлы к сообщениям
    Вы можете скачивать файлы