MEGA SALE -50% FORZA HORIZON 4 ULTIMATE+ВСЕ DLC+ОНЛАЙН всего за 599р. 299 руб. (супер цена). Внимание количество ограничено!!!

iTunes

1+1

iTunes

мы

iTunes

1

iTunes

Чернобыль

1 сезон

Ральф против интернета

Лицензия

ПШазам

Лицензия

Игра престолов

Лицензия

30
pack

ВАЖНО

!!Акция!!

Alien_RageХит недели

RePack

Resident Evil 21

ИГРА 18+

pack

RePack

Metro:Exodus

!!Акция!!

Alien_Rage

RePack

fifa19

RePack

Assassins Creed: Odyssey

RePack

NEED FOR SPEED™ PAYBACK

3 сезон

9 сезон

Бесстыжие 9 сезон

Все сериалы

все сериалы на PB.wtf

RePack

FAR CRY 5
Ребята, катастрофически не хватает 7730р. для оплаты серверов за ИЮЛЬ (всвязи с блокировками трафик упал в 3 раза), 1-2р., выручайте.
  

Прощай, Кристофер Робин / Goodbye Christopher Robin (Саймон Кёртис) [2017, семейный, биография, история, WEB-DL 1080p] MVO [iTunes] pb.wtf

Прощай, Кристофер Робин через торрент pb.wtf

Размер: 4.41 GB | Добавлен: 1 год 7 мес. назад | Торрент скачан:236 раз
Скачать  

04-01-2018 23:20 Прощай, Кристофер Робин Скачать торрент  

Прощай, Кристофер Робин / Goodbye Christopher Robin«Inspired by the True Story»

Год выпуска: 2017
Страна: Великобритания
Жанр: семейный, биография, история
Продолжительность: 01:47:28
Перевод: Профессиональный многоголосый iTunes

Режиссер: Саймон Кёртис
Продюсер: Стив Кристиан, Саймон Кёртис, Марк Хаббард

В ролях: Донал Глисон, Марго Робби, Келли Макдоналд, Вики Пеппердин, Уилл Тилстон, Алекс Лоутер, Стивен Кэмпбелл, Мур, Ричард МакКейб, Джеральдин Сомервилль, Мосси Смит


Описание:Картина расскажет о взаимоотношениях между А. А. Милном и его сыном Кристофером Робином, чьи игрушки вдохновили писателя на создание волшебного мира повестей о Винни-Пухе.

Премьера (мир):20 сентября 2017
Премьера (РФ):23 ноября 2017
Рейтинг MPAA: Рекомендуется присутствие родителей
rating
Качество: WEB-DL (1080p)
Видео: MPEG-4 AVC, 4995 Кбит/с, 1920x1036
Аудио 1: Русский (AC3, 6 ch, 384 Кбит/с)
Аудио 2: Английский (AC3, 6 ch, 384 Кбит/с)
Общее
Формат : Matroska
Версия формата : Version 4 / Version 2
Размер файла : 4,41 Гбайт
Продолжительность : 1 ч. 47 м.
Общий поток : 5880 Кбит/сек
Название фильма : Goodbye Christopher Robin 2017 from ExKinoRay
Дата кодирования : UTC 2018-01-04 22:42:11
Программа кодирования : mkvmerge v19.0.0 ('Brave Captain') 64-bit
Библиотека кодирования : libebml v1.3.5 + libmatroska v1.4.8

Видео
Идентификатор : 1
Формат : AVC
Формат/Информация : Advanced Video Codec
Профиль формата : High@L4
Настройки формата : CABAC / 4 Ref Frames
Параметр CABAC формата : Да
Параметр RefFrames формата : 4 кадра
Идентификатор кодека : V_MPEG4/ISO/AVC
Продолжительность : 1 ч. 47 м.
Битрейт : 4995 Кбит/сек
Ширина : 1920 пикселей
Высота : 1036 пикселей
Соотношение сторон : 1,85:1
Режим частоты кадров : Постоянный
Частота кадров : 24,000 кадра/сек
Цветовое пространство : YUV
Субдискретизация насыщенности : 4:2:0
Битовая глубина : 8 бит
Тип развёртки : Прогрессивная
Бит/(Пиксели*Кадры) : 0.105
Размер потока : 3,75 Гбайт (85%)
Язык : English
Default : Да
Forced : Нет
Цветовой диапазон : Limited
Основные цвета : BT.709
Характеристики трансфера : BT.709
Коэффициенты матрицы : BT.709

Аудио #1
Идентификатор : 2
Формат : AC-3
Формат/Информация : Audio Coding 3
Идентификатор кодека : A_AC3
Продолжительность : 1 ч. 47 м.
Вид битрейта : Постоянный
Битрейт : 384 Кбит/сек
Каналы : 6 каналов
Расположение каналов : Front: L C R, Side: L R, LFE
Частота : 48,0 КГц
Частота кадров : 31,250 кадров/сек (1536 SPF)
Битовая глубина : 16 бит
Метод сжатия : С потерями
Размер потока : 295 Мбайт (7%)
Заголовок : iTunes
Язык : Russian
ServiceKind/String : Complete Main
Default : Да
Forced : Нет

Аудио #2
Идентификатор : 3
Формат : AC-3
Формат/Информация : Audio Coding 3
Идентификатор кодека : A_AC3
Продолжительность : 1 ч. 47 м.
Вид битрейта : Постоянный
Битрейт : 384 Кбит/сек
Каналы : 6 каналов
Расположение каналов : Front: L C R, Side: L R, LFE
Частота : 48,0 КГц
Частота кадров : 31,250 кадров/сек (1536 SPF)
Битовая глубина : 16 бит
Метод сжатия : С потерями
Размер потока : 295 Мбайт (7%)
Заголовок : Original
Язык : English
ServiceKind/String : Complete Main
Default : Нет
Forced : Нет

Меню
00:00:00.000 : en:1
00:04:03.952 : en:2
00:07:01.170 : en:3
00:10:32.631 : en:4
00:13:40.527 : en:5
00:16:48.590 : en:6
00:20:43.408 : en:7
00:25:44.792 : en:8
00:30:36.750 : en:9
00:35:25.580 : en:10
00:40:50.738 : en:11
00:48:22.106 : en:12
00:52:32.731 : en:13
00:57:53.593 : en:14
01:03:35.810 : en:15
01:07:38.511 : en:16
01:12:43.858 : en:17
01:18:55.729 : en:18
01:21:45.607 : en:19
01:25:16.651 : en:20
01:29:10.426 : en:21
01:32:27.915 : en:22
01:35:55.914 : en:23
01:41:03.263 : en:24
★ Съёмки проходили в графствах Оксфордшир, Суррей, Восточный Суссекс и в Лондоне.
pb.wtf



Скачать Прощай, Кристофер Робин через торрент http://s014.radikal.ru/i326/1711/42/cdb5ee32d5ec.png Скачать фильм Прощай, Кристофер Робин через торрент бесплантно в хорошем качестве Описание:Картина расскажет о взаимоотношениях между А. А. Милном и его сыном Кристофером Робином, чьи игрушки вдохновили писателя на ... 8.8 10 5
Торрент: Зарегистрирован [2018-01-04 23:20] · скачан: 236 раз
Статус: √ проверено
Размер: 4.41 GB
Как cкачать? Как скачать Прощай, Кристофер Робин через торрент | qTorrent

% Раздел Тема Автор DL S | L
Фильмы 2017 [DVDrip, WEB-DLRip, HDrip] (DUB, MVO) [ 1.46 GB ] Прощай Кристофер Робин / Goodbye Christopher Robin [2017 биография история BDRip] MVO [] Twi7ter Скачать
3 | 0
Фильмы 2017 [DVDrip, WEB-DLRip, HDrip] (DUB, MVO) [ 747 MB ] Прощай Кристофер Робин / Goodbye Christopher Robin [2017 биография история HDRip] MVO [] Loc387 Скачать
1 | 0
Фильмы [HD 720p, 1080p] (Хороший звук DUB, MVO) [ 7.85 GB ] Прощай Кристофер Робин / Goodbye Christopher Robin [2017 биография история BDRip 720p] MVO [] bober100 Скачать
1 | 0
Фильмы [HD 720p, 1080p] (Хороший звук DUB, MVO) [ 13.33 GB ] Прощай Кристофер Робин / Goodbye Christopher Robin [2017 биография история BDRip 1080p] MVO [] bober100 Скачать
1 | 0
Фильмы 2017 [DVDrip, WEB-DLRip, HDrip] (DUB, MVO) [ 1.46 GB ] Прощай Кристофер Робин / Goodbye Christopher Robin [2017 биография история BDRip] MVO [] bober100 Скачать
1 | 0
Фильмы 2017 [DVDrip, WEB-DLRip, HDrip] (DUB, MVO) [ 2.37 GB ] Прощай Кристофер Робин / Goodbye Christopher Robin [2017 биография история BDRip-AVC] MVO [] bober100 Скачать
1 | 0
Фильмы (Blu-ray, BD-Remux, HDDVD) [ 24.66 GB ] Прощай Кристофер Робин / Goodbye Christopher Robin [2017 биография история BD Remux 1080p] MVO bober100 Скачать
1 | 0


>> Регистрируемся здесь <<






Отзывы и комментарии о схеме читаем и пишем здесь: ---> Отзывы и комментарии о схеме

Новые благодарочки в телеграм довольных пользователей:
скриншот   скриншот   скриншот   скриншот   скриншот

05-01-2018 03:12 Прощай, Кристофер Робин Скачать торрент  

Топик был перенесен из форума Оформление раздач (Кино, Видео и ТВ) в форум Фильмы (WEB-DL 720p, 1080p)


schultzpb.wtf



15-01-2018 16:24 Прощай, Кристофер Робин Скачать торрент  

ну очень странный фильм и странное семейство!pb.wtf



    Дорогой пользователь! Огромная просьба, поблагодарите релизера, оцените раздачу и оставьте свои комментарий, если Вы скачали Прощай, Кристофер Робин через торрент бесплатно! Внесите свою лепту в развитие PiratBit!
    Комментировать посты могут только пользователи прошедшие не сложную регистрацию
    Показать сообщения:    

    Прощай, Кристофер Робин через торрент
    Скачать бесплатно Прощай, Кристофер Робин
    Прощай, Кристофер Робин скачать торрент
    Прощай, Кристофер Робин смотреть онлайн
    Cкачать фильм Прощай, Кристофер Робин бесплатно
    Прощай, Кристофер Робин скачать торрент в хорошем качестве
    Прощай, Кристофер Робин смотреть онлайн бесплатно в хорошем качестве


    Вы не можете начинать темы
    Вы не можете отвечать на сообщения
    Вы не можете редактировать свои сообщения
    Вы не можете удалять свои сообщения
    Вы не можете голосовать в опросах
    Вы не можете прикреплять файлы к сообщениям
    Вы можете скачивать файлы