Ссылка на приватное зеркало нашего сайта всего за 1$. Внимание количество ограничено!!!

2 сезон

iTunes

1 сезон

1

2 сезон

2 сезон

iTunes

1 сезон

RePack

30

Новинка

ВАЖНО

ИГРА 18+

pack

RePack

MK11
pack

Забери бонус

RePack

jed

!!Акция!!

Alien_Rage

RePack

fifa19

RePack

Assassins Creed: Odyssey

RePack

NEED FOR SPEED™ PAYBACK

4 сезон

9 сезон

Бесстыжие 9 сезон

Все сериалы

все сериалы на PB.wtf

RePack

FAR CRY 5
  

Убить за лайк / Tragedy Girls (Тайлер МакИнтайр) [2017 г., ужасы, комедия, WEB-DL 1080p] DUB [iTunes] pb.wtf

Убить за лайк через торрент pb.wtf

Размер: 3.39 GB | Добавлен: 2 года 10 мес. назад | Торрент скачан:392 раза
Скачать  

04-01-2018 23:43 Убить за лайк Скачать торрент  

Убить за лайк / Tragedy Girls«Поставь лайк или дизлайк»

Год выпуска: 2017
Страна: США
Жанр: Комедия, ужасы
Продолжительность: 01:38:12
Перевод: Профессиональный (дублированный) iTunes

Режиссер: Тайлер МакИнтайр
Продюсер: Армен Агаеян

В ролях:Джош Хатчерсон, Брианна Хилдебранд, Кевин Дюран, Никки Уилан, Крэйг Робинсон, Александра Шипп, Розалинд Чао, Джек Куэйд, Остин Абрамс, Тимоти В. Мерфи


Описание:Две девушки-старшеклассницы из американской глубинки одержимы темой смерти и ведут соответствующее их интересам онлайн-шоу. В центре внимания их видео-блога находятся реальные кровавые трагедии и особо выдающиеся несчастные случаи. Вскоре их шоу становятся невероятно популярным, как и сами девушки, молва о которых выходит за пределы их маленького городка. Однако вскоре у новоиспеченных звезд заканчивается материал для шоу, и они решают действовать самостоятельно.
Рейтинг MPAA: Лицам до 17 лет обязательно присутствие взрослого
Рейтинг ВКИП: запрещено для детей
rating
Качество: WEB-DL (1080p)
Формат: MKV
Видео: MPEG-4 AVC, 4559 Kбит/с, 1920x802
Аудио: Русский (AC3, 6 ch, 384 Кбит/с)
Общее
Формат : Matroska
Версия формата : Version 4 / Version 2
Размер файла : 3,39 Гбайт
Продолжительность : 1 ч. 38 м.
Общий поток : 4944 Кбит/сек
Название фильма : Tragedy Girls 2017 from ExKinoRay
Дата кодирования : UTC 2018-01-04 23:06:43
Программа кодирования : mkvmerge v19.0.0 ('Brave Captain') 64-bit
Библиотека кодирования : libebml v1.3.5 + libmatroska v1.4.8

Видео
Идентификатор : 1
Формат : AVC
Формат/Информация : Advanced Video Codec
Профиль формата : High@L4
Настройки формата : CABAC / 5 Ref Frames
Параметр CABAC формата : Да
Параметр RefFrames формата : 5 кадров
Идентификатор кодека : V_MPEG4/ISO/AVC
Продолжительность : 1 ч. 38 м.
Битрейт : 4462 Кбит/сек
Ширина : 1920 пикселей
Высота : 802 пикселя
Соотношение сторон : 2,40:1
Режим частоты кадров : Постоянный
Частота кадров : 24,000 кадра/сек
Цветовое пространство : YUV
Субдискретизация насыщенности : 4:2:0
Битовая глубина : 8 бит
Тип развёртки : Прогрессивная
Бит/(Пиксели*Кадры) : 0.121
Размер потока : 3,06 Гбайт (90%)
Язык : English
Default : Да
Forced : Нет
Цветовой диапазон : Limited
Основные цвета : BT.709
Характеристики трансфера : BT.709
Коэффициенты матрицы : BT.709

Аудио
Идентификатор : 2
Формат : AC-3
Формат/Информация : Audio Coding 3
Идентификатор кодека : A_AC3
Продолжительность : 1 ч. 38 м.
Вид битрейта : Постоянный
Битрейт : 384 Кбит/сек
Каналы : 6 каналов
Расположение каналов : Front: L C R, Side: L R, LFE
Частота : 48,0 КГц
Частота кадров : 31,250 кадров/сек (1536 SPF)
Битовая глубина : 16 бит
Метод сжатия : С потерями
Размер потока : 270 Мбайт (8%)
Заголовок : iTunes
Язык : Russian
ServiceKind/String : Complete Main
Default : Да
Forced : Нет

Меню
00:00:00.000 : en:Глава 1
00:04:01.708 : en:Глава 2
00:08:59.124 : en:Глава 3
00:15:19.915 : en:Глава 4
00:19:53.831 : en:Глава 5
00:26:27.122 : en:Глава 6
00:32:56.913 : en:Глава 7
00:38:53.704 : en:Глава 8
00:43:38.995 : en:Глава 9
00:49:49.661 : en:Глава 10
00:55:57.786 : en:Глава 11
01:01:45.369 : en:Глава 12
01:08:23.119 : en:Глава 13
01:12:57.202 : en:Глава 14
01:19:46.743 : en:Глава 15
01:25:46.534 : en:Глава 16
pb.wtf



Скачать Убить за лайк через торрент http://s019.radikal.ru/i603/1711/ab/1bd7e003e0a4.png Скачать фильм Убить за лайк через торрент бесплантно в хорошем качестве Описание:Две девушки-старшеклассницы из американской глубинки одержимы темой смерти и ведут соответствующее их интересам онлайн-шоу. В ... 9.6 10 12
Info! Золотая раздача, скачанное не засчитывается.
Торрент: Зарегистрирован [2018-01-04 23:43] · скачан: 392 раз
Статус: √ проверено
Размер: 3.39 GB
Как cкачать? Как скачать Убить за лайк через торрент | qTorrent

% Раздел Тема Автор DL S | L
Фильмы 2017 [DVDrip, WEB-DLRip, HDrip] (DUB, MVO) [ 1.37 GB ] Убить за лайк / Tragedy Girls [2017 HDRip] bober100 Скачать
2 | 0
T Фильмы [HD 720p, 1080p] (Хороший звук DUB, MVO) [ 3.54 GB ] Убить за лайк / Tragedy Girls [2017 BDRip 720p] bober100 Скачать
1 | 0
Фильмы 2017 [DVDrip, WEB-DLRip, HDrip] (DUB, MVO) [ 747 MB ] Убить за лайк / Tragedy Girls [2017 WEB-DLRip] bober100 Скачать
1 | 0

28-11-2019 20:33  

Отключить всю рекламу на сайте

05-01-2018 03:08 Убить за лайк Скачать торрент  

Топик был перенесен из форума Оформление раздач (Кино, Видео и ТВ) в форум Фильмы (WEB-DL 720p, 1080p)


schultzpb.wtf



31-03-2020 00:48 Убить за лайк Скачать торрент  

фильм смотрится на одном дыхании.pb.wtf



    Дорогой пользователь! Огромная просьба, поблагодарите релизера, оцените раздачу и оставьте свои комментарий, если Вы скачали Убить за лайк через торрент бесплатно! Внесите свою лепту в развитие PiratBit!
    Комментировать посты могут только пользователи прошедшие не сложную регистрацию
    Показать сообщения:    

    Убить за лайк через торрент
    Скачать бесплатно Убить за лайк
    Убить за лайк скачать торрент
    Убить за лайк смотреть онлайн
    Cкачать фильм Убить за лайк бесплатно
    Убить за лайк скачать торрент в хорошем качестве
    Убить за лайк смотреть онлайн бесплатно в хорошем качестве


    Вы не можете начинать темы
    Вы не можете отвечать на сообщения
    Вы не можете редактировать свои сообщения
    Вы не можете удалять свои сообщения
    Вы не можете голосовать в опросах
    Вы не можете прикреплять файлы к сообщениям
    Вы можете скачивать файлы