Ссылка на приватное зеркало нашего сайта всего за 1$. Внимание количество ограничено!!!

2 сезон

iTunes

1 сезон

1

iTunes

iTunes

iTunes

1 сезон

RePack

30

ИГРА 18+

pack

ВАЖНО

!!Акция!!

Alien_RageХит недели

RePack

MK11
pack

Забери бонус

RePack

jed

!!Акция!!

Alien_Rage

RePack

fifa19

RePack

Assassins Creed: Odyssey

RePack

NEED FOR SPEED™ PAYBACK

4 сезон

9 сезон

Бесстыжие 9 сезон

Все сериалы

все сериалы на PB.wtf

RePack

FAR CRY 5
  

Ликвидация / Сезон: 1 / Серии: 1-14 из 14 (Сергей Урсуляк) [2007, Детектив, криминал, триллер, драма, WEB-DLRip] pb.wtf

Ликвидация через торрент pb.wtf

Размер: 8.7 GB | Добавлен: 2 года 9 мес. назад | Торрент скачан:351 раз
Скачать  

05-01-2018 02:11 Ликвидация Скачать торрент  

ЛиквидацияГод выпуска: 2007
Страна: Россия
Жанр: Детектив, криминал, триллер, драма
Продолжительность: 14 x ~ 00:46:00
Перевод: Не требуется
Субтитры: отсутствуют

Режиссер: Сергей Урсуляк

rating

В ролях:

Владимир Машков, Михаил Пореченков, Владимир Меньшов, Сергей Маковецкий, Андрей Краско, Светлана Крючкова, Фёдор Добронравов, Виктор Смирнов (I), Александр Голубев, Александр Семчев, Максим Дрозд, Олег Басилашвили, Вячеслав Ильин, Игорь Арташонов, Артём Осипов, Виктор Сарайкин, Диана Малая, Константин Лавроненко, Ксения Раппопорт, Полина Агуреева, Виктор Бунаков, Кирилл Кяро, Владимир Ровинский, Павел Ворожцов, Евгений Куршинский, Беата Маковская, Сергей Рубеко, Светлана Зубченко, Сергей Угрюмов, Лика Нифонтова, Виктор Супрун

Описание:

Послевоенная Одесса, разгул преступности. В городе орудует банда бывших диверсантов во главе с загадочным Академиком, которого не знают даже свои. Бандиты грабят военные склады и пытаются переправить продовольствие, обмундирование и оружие бандеровцам. В это время недовольный Жуковым Сталин назначает его командующим Одесским округом. Маршал всеми силами пытается навести в городе порядок.

Качество: WEB-DLRip
Формат: AVI
Видео кодек: XviD
Аудио кодек: AC3

Видео: XviD build 73, 720x432 (5:3), 25.000 fps, ~ 1550 Kbps (~ 0.200 bit/pixel)
Аудио: 48.0 kHz, AC3 Dolby Digital, 5/1 (L C R, Side: L R, LFE) ch, 384 kbps
скриншот   скриншот   скриншот   скриншот   скриншот  

Общее
Полное имя : D:\Likvidacija.2007.XviD.WEB-DLRip.GeneralFilm\Likvidacija.E01.avi
Формат : AVI
Формат/Информация : Audio Video Interleave
Размер файла : 637 Мбайт
Продолжительность : 46 м. 5 с.
Общий поток : 1933 Кбит/сек
Программа кодирования : VirtualDubMod 1.5.10.3 | www.virtualdub-fr.org || (build 2550/release)
Библиотека кодирования : VirtualDubMod build 2550/release

Видео
Идентификатор : 0
Формат : MPEG-4 Visual
Профиль формата : Advanced Simple@L5
Параметр BVOP формата : 1
Параметр QPel формата : Нет
Параметр GMC формата : Без точки перехода
Параметр матрицы формата : Выборочная
Идентификатор кодека : XVID
Идентификатор кодека/Подсказка : XviD
Продолжительность : 46 м. 5 с.
Битрейт : 1540 Кбит/сек
Ширина : 720 пикселей
Высота : 432 пикселя
Соотношение сторон : 5:3
Частота кадров : 25,000 кадров/сек
Цветовое пространство : YUV
Субдискретизация насыщенности : 4:2:0
Битовая глубина : 8 бит
Тип развёртки : Прогрессивная
Метод сжатия : С потерями
Бит/(Пиксели*Кадры) : 0.198
Размер потока : 508 Мбайт (80%)
Библиотека кодирования : XviD 73

Аудио
Идентификатор : 1
Формат : AC-3
Формат/Информация : Audio Coding 3
Расширение режима : CM (complete main)
Параметр Endianness формата : Big
Идентификатор кодека : 2000
Продолжительность : 46 м. 5 с.
Вид битрейта : Постоянный
Битрейт : 384 Кбит/сек
Каналы : 6 каналов
Расположение каналов : Front: L C R, Side: L R, LFE
Частота : 48,0 КГц
Частота кадров : 31,250 кадров/сек (1536 spf)
Метод сжатия : С потерями
Размер потока : 127 Мбайт (20%)
Выравнивание : Разделение по промежуткам
Продолжительность промежутка : 40 мс. (1,00 видеокадр)
Время предзагрузки промежутка : 500 мс.

pb.wtf



Скачать Ликвидация через торрент http://s010.radikal.ru/i311/1703/6f/6a42966d5d04.jpg Скачать фильм Ликвидация через торрент бесплантно в хорошем качестве Описание: Послевоенная Одесса, разгул преступности. В городе орудует банда бывших диверсантов во главе с загадочным Академиком, которого не ... 10 10 11
Торрент: Зарегистрирован [2018-01-05 02:11] · скачан: 351 раз
Статус: √ проверено
Размер: 8.7 GB
Как cкачать? Как скачать Ликвидация через торрент | qTorrent

% Раздел Тема Автор DL S | L
Наши сериалы [ 28.62 GB ] Ликвидация / Сезон: 1 / Серии: 1-14 из 14 [2007 WEB-DL 1080p] bober100 Скачать
2 | 0

28-11-2019 20:33  

Отключить всю рекламу на сайте

05-01-2018 10:38 Ликвидация Скачать торрент  

Ликвидация / Сезон: 1
Когда продолжение?pb.wtf



09-01-2018 09:43 Ликвидация Скачать торрент  

maikl1.2 писал(а):

Ликвидация / Сезон: 1
Когда продолжение?

Когда снимут.pb.wtf



    Дорогой пользователь! Огромная просьба, поблагодарите релизера, оцените раздачу и оставьте свои комментарий, если Вы скачали Ликвидация через торрент бесплатно! Внесите свою лепту в развитие PiratBit!
    Комментировать посты могут только пользователи прошедшие не сложную регистрацию
    Показать сообщения:    

    Ликвидация через торрент
    Скачать бесплатно Ликвидация
    Ликвидация скачать торрент
    Ликвидация смотреть онлайн
    Cкачать фильм Ликвидация бесплатно
    Ликвидация скачать торрент в хорошем качестве
    Ликвидация смотреть онлайн бесплатно в хорошем качестве


    Вы не можете начинать темы
    Вы не можете отвечать на сообщения
    Вы не можете редактировать свои сообщения
    Вы не можете удалять свои сообщения
    Вы не можете голосовать в опросах
    Вы не можете прикреплять файлы к сообщениям
    Вы можете скачивать файлы