Ссылка на приватное зеркало нашего сайта всего за 1$. Внимание количество ограничено!!!

2 сезон

iTunes

1 сезон

1

iTunes

iTunes

iTunes

1 сезон

RePack

30

ИГРА 18+

pack

ВАЖНО

!!Акция!!

Alien_RageХит недели

RePack

MK11
pack

Забери бонус

RePack

jed

!!Акция!!

Alien_Rage

RePack

fifa19

RePack

Assassins Creed: Odyssey

RePack

NEED FOR SPEED™ PAYBACK

4 сезон

9 сезон

Бесстыжие 9 сезон

Все сериалы

все сериалы на PB.wtf

RePack

FAR CRY 5
  

Летние любовники / Summer Lovers (Рэндал Клайзер) [1982, драма, мелодрама, комедия, BDRip 720p by msltel] DVO, AVO pb.wtf

Летние любовники через торрент pb.wtf

Размер: 4.79 GB | Добавлен: 2 года 9 мес. назад | Торрент скачан:104 раза
Скачать  

05-01-2018 06:46 Летние любовники Скачать торрент  

Название: Летние любовники
Оригинальное название: Summer Lovers
Год выпуска: 1982
Страна: США
Жанр: драма, мелодрама, комедия
Продолжительность: 01:38:53
Перевод: профессиональный двухголосый, авторский

Режиссер: Рэндал Клайзер
В ролях: Питер Галлахер, Дэрил Ханна, Валери Кеннессен, Барбара Раш, Кэрол Кук, Ханс ван Тонгерен, Лидия Ленеси, Карлос Родригез Рамос, Питер Пай, Дженис Бенжамин, Виктор Т. Салант, Генри Бехар, Стивен Фазекас, Джейн Модер, Хилари Шепард, Надя Фами, Ричард Монтгомери, Энн Коулмэн, Франсуа Масу

О фильме: Майкл и Кэти вместе с толпами других туристов приезжают на побережье Греции на летние каникулы. Майкл вскоре увлекается раскованной француженкой-археологом, а Кэти, узнав, что они стали любовниками, знакомится с этой француженкой и весьма близко с ней сходится. Все трое начинают жить одной дружной семьей...



Качество: BDRip 720p
Формат: MKV
Видео: MPEG-4 AVC, 6363 Кбит/с, 1280x694, 23.976 кадр/с
Аудио 1: русский, AC3, 192 kbps, 2 ch, 48 kHz [профессиональный двухголосый]
Аудио 2: русский, AC3, 192 kbps, 2 ch, 48 kHz [авторский, Владимир Королёв]
Аудио 3: английский, AC3, 192 kbps, 2 ch, 48 kHz [оригинал]
Субтитры: английские
Неименованные главы/чаптеры.
Общее
Уникальный идентификатор : 176391529145951480762472630889449014759 (0x84B3C5D5AFB161628CD7B6A09E2445E7)
Полное имя : D:\Video\Летние любовники.1982.BDRip.720p by msltel.mkv
Формат : Matroska
Версия формата : Version 4 / Version 2
Размер файла : 4,79 Гбайт
Продолжительность : 1 ч. 38 м.
Общий поток : 6941 Кбит/сек
Название фильма : Rip by msltel
Дата кодирования : UTC 2018-01-05 04:56:00
Программа кодирования : mkvmerge v8.2.0 ('World of Adventure') 64bit
Библиотека кодирования : libebml v1.3.1 + libmatroska v1.4.2

Видео
Идентификатор : 1
Формат : AVC
Формат/Информация : Advanced Video Codec
Профиль формата : High@L4.1
Настройки формата : CABAC / 9 Ref Frames
Параметр CABAC формата : Да
Параметр RefFrames формата : 9 кадров
Идентификатор кодека : V_MPEG4/ISO/AVC
Продолжительность : 1 ч. 38 м.
Битрейт : 6363 Кбит/сек
Ширина : 1280 пикселей
Высота : 694 пикселя
Соотношение сторон : 1,85:1
Режим частоты кадров : Постоянный
Частота кадров : 23,976 (24000/1001) кадра/сек
Цветовое пространство : YUV
Субдискретизация насыщенности : 4:2:0
Битовая глубина : 8 бит
Тип развёртки : Прогрессивная
Бит/(Пиксели*Кадры) : 0.299
Размер потока : 4,39 Гбайт (92%)
Библиотека кодирования : x264 core 146 r2538 121396c
Настройки программы : cabac=1 / ref=9 / deblock=1:-3:-2 / analyse=0x3:0x113 / me=umh / subme=11 / psy=1 / psy_rd=1.00:0.15 / mixed_ref=1 / me_range=32 / chroma_me=1 / trellis=2 / 8x8dct=1 / cqm=0 / deadzone=21,11 / fast_pskip=0 / chroma_qp_offset=-3 / threads=6 / lookahead_threads=1 / sliced_threads=0 / nr=0 / decimate=1 / interlaced=0 / bluray_compat=0 / constrained_intra=0 / bframes=8 / b_pyramid=2 / b_adapt=2 / b_bias=0 / direct=1 / weightb=1 / open_gop=0 / weightp=2 / keyint=230 / keyint_min=23 / scenecut=40 / intra_refresh=0 / rc_lookahead=40 / rc=crf / mbtree=0 / crf=20.0 / qcomp=0.60 / qpmin=0 / qpmax=69 / qpstep=4 / vbv_maxrate=62500 / vbv_bufsize=78125 / crf_max=0.0 / nal_hrd=none / filler=0 / ip_ratio=1.40 / pb_ratio=1.30 / aq=1:1.00
Язык : English
Default : Да
Forced : Нет

Аудио #1
Идентификатор : 2
Формат : AC-3
Формат/Информация : Audio Coding 3
Идентификатор кодека : A_AC3
Продолжительность : 1 ч. 38 м.
Вид битрейта : Постоянный
Битрейт : 192 Кбит/сек
Каналы : 2 канала
Расположение каналов : Front: L R
Частота : 48,0 КГц
Частота кадров : 31,250 кадров/сек (1536 SPF)
Битовая глубина : 16 бит
Метод сжатия : С потерями
Размер потока : 136 Мбайт (3%)
Заголовок : DVO
Язык : Russian
ServiceKind/String : Complete Main
Default : Да
Forced : Нет

Аудио #2
Идентификатор : 3
Формат : AC-3
Формат/Информация : Audio Coding 3
Идентификатор кодека : A_AC3
Продолжительность : 1 ч. 38 м.
Вид битрейта : Постоянный
Битрейт : 192 Кбит/сек
Каналы : 2 канала
Расположение каналов : Front: L R
Частота : 48,0 КГц
Частота кадров : 31,250 кадров/сек (1536 SPF)
Битовая глубина : 16 бит
Метод сжатия : С потерями
Размер потока : 136 Мбайт (3%)
Заголовок : Владимир Королёв
Язык : Russian
ServiceKind/String : Complete Main
Default : Нет
Forced : Нет

Аудио #3
Идентификатор : 4
Формат : AC-3
Формат/Информация : Audio Coding 3
Идентификатор кодека : A_AC3
Продолжительность : 1 ч. 38 м.
Вид битрейта : Постоянный
Битрейт : 192 Кбит/сек
Каналы : 2 канала
Расположение каналов : Front: L R
Частота : 48,0 КГц
Частота кадров : 31,250 кадров/сек (1536 SPF)
Битовая глубина : 16 бит
Метод сжатия : С потерями
Размер потока : 136 Мбайт (3%)
Заголовок : original
Язык : English
ServiceKind/String : Complete Main
Default : Нет
Forced : Нет

Текст
Идентификатор : 5
Формат : UTF-8
Идентификатор кодека : S_TEXT/UTF8
Идентификатор кодека/Информация : UTF-8 Plain Text
Продолжительность : 1 ч. 38 м.
Битрейт : 53 бит/сек
ElementCount : 1586
Размер потока : 38,7 Кбайт (0%)
Заголовок : английские
Язык : English
Default : Нет
Forced : Нет

Меню
00:00:00.000 : :Chapter 01
00:05:52.726 : :Chapter 02
00:09:04.085 : :Chapter 03
00:11:59.634 : :Chapter 04
00:16:44.378 : :Chapter 05
00:19:29.459 : :Chapter 06
00:25:56.554 : :Chapter 07
00:29:06.661 : :Chapter 08
00:33:03.355 : :Chapter 09
00:38:15.126 : :Chapter 10
00:42:32.465 : :Chapter 11
00:44:41.552 : :Chapter 12
00:49:40.726 : :Chapter 13
00:54:29.641 : :Chapter 14
00:57:18.309 : :Chapter 15
01:04:30.115 : :Chapter 16
01:07:29.836 : :Chapter 17
01:11:10.140 : :Chapter 18
01:15:22.600 : :Chapter 19
01:21:15.119 : :Chapter 20
01:24:28.188 : :Chapter 21
01:29:00.752 : :Chapter 22
01:32:08.396 : :Chapter 23
01:36:46.801 : :Chapter 24
01:38:53.135 : :Chapter 25
pb.wtf



Скачать Летние любовники через торрент https://b.radikal.ru/b12/1801/60/81cc96f6fcef.jpg Скачать фильм Летние любовники через торрент бесплантно в хорошем качестве О фильме: Майкл и Кэти вместе с толпами других туристов приезжают на побережье Греции на летние каникулы. Майкл вскоре увлекается ... 8 10 3
Info! Золотая раздача, скачанное не засчитывается.
Торрент: Зарегистрирован [2018-01-05 06:46] · скачан: 104 раз
Статус: √ проверено
Размер: 4.79 GB
Как cкачать? Как скачать Летние любовники через торрент | qTorrent

% Раздел Тема Автор DL S | L
Фильмы [HD 720p, 1080p] (Хороший звук DUB, MVO) [ 14.18 GB ] Летние любовники / Summer Lovers [1982 BDRip 1080p by msltel] DVO AVO msltel Скачать
1 | 0
Фильмы до 2000 г. [ 2.74 GB ] Летние любовники / Summer Lovers [1982 эротика BDRip-AVC] DVO AVO koenig Скачать
1 | 0

28-11-2019 20:33  

Отключить всю рекламу на сайте

    Дорогой пользователь! Огромная просьба, поблагодарите релизера, оцените раздачу и оставьте свои комментарий, если Вы скачали Летние любовники через торрент бесплатно! Внесите свою лепту в развитие PiratBit!
    Комментировать посты могут только пользователи прошедшие не сложную регистрацию
    Показать сообщения:    

    Летние любовники через торрент
    Скачать бесплатно Летние любовники
    Летние любовники скачать торрент
    Летние любовники смотреть онлайн
    Cкачать фильм Летние любовники бесплатно
    Летние любовники скачать торрент в хорошем качестве
    Летние любовники смотреть онлайн бесплатно в хорошем качестве


    Вы не можете начинать темы
    Вы не можете отвечать на сообщения
    Вы не можете редактировать свои сообщения
    Вы не можете удалять свои сообщения
    Вы не можете голосовать в опросах
    Вы не можете прикреплять файлы к сообщениям
    Вы можете скачивать файлы