Ссылка на приватное зеркало всего за 1$. Внимание количество ограничено!!!

OK

1+1

iTunes

мы

OK

1

WEB-DLRip

Джокер

Пифагор

Ведьмак / The Witcher сериал

iTunes

ПШазам

ОК

Оно 2

iTunes

30
pack

Вам бонус

ВАЖНО

!!Акция!!

Alien_RageХит недели

RePack

Resident Evil 21

ИГРА 18+

pack

RePack

jed

RePack

fifa19

RePack

Assassins Creed: Odyssey

RePack

NEED FOR SPEED™ PAYBACK

4 сезон

9 сезон

Бесстыжие 9 сезон

Все сериалы

все сериалы на PB.wtf

RePack

FAR CRY 5
  

Крысобургер / Ratburger (Мэтт Липси) [2017, семейный, WEBRip 720p] MVO ["Синема УС"] pb.wtf

Крысобургер через торрент pb.wtf

Размер: 2.15 GB | Добавлен: 2 года назад | Торрент скачан:53 раза
Скачать  

05-01-2018 07:02 Крысобургер Скачать торрент  

Крысобургер / RatburgerГод выпуска: 2017
Страна: Великобритания
Жанр: семейный
Продолжительность: 01:07:55
Перевод: Любительский (многоголосый) ["Синема УС"]
Субтитры: отсутствуют

Режиссер: Мэтт Липси

rating

В ролях:

Дэвид Уоллиамс, Тилли Арматей, Джордж Кент

Описание:

Сказка на современный лад про бедную сироту, её безвольного отца, злобную мачеху и злодея, который зарабатывает на жизнь продавая подозрительно дешёвые гамбургеры. Однако, жизнь главной героини внезапно меняется, когда она находит супер-умную крысу, которая не только понимает человеческую речь, но ещё и хорошо танцует.

Качество: WEBRip 720p
Формат: MKV
Видео кодек: H.264
Аудио кодек: AC3

Видео: 4139 Kбит/с, 1280x720
Аудио#1: Русский, (AC3, 2 ch, 384 Кбит/с)


скриншот   скриншот   скриншот  

Общее
Уникальный идентификатор : 224699716053574233078811977177490078386 (0xA90B97568AF6EBA0934DC3A9841D3AB2)
Полное имя : D:\Ratburger.2017.P.HDTV.72Op_KOSHARA.mkv
Формат : Matroska
Версия формата : Version 2
Размер файла : 2,15 Гбайт
Продолжительность : 1 ч. 7 м.
Режим общего битрейта : Переменный
Общий поток : 4525 Кбит/сек
Дата кодирования : UTC 2018-01-03 12:45:03
Программа кодирования : mkvmerge v8.3.0 ('Over the Horizon') 64bit
Библиотека кодирования : libebml v1.3.1 + libmatroska v1.4.2

Видео
Идентификатор : 1
Формат : AVC
Формат/Информация : Advanced Video Codec
Профиль формата : High@L4.1
Параметр CABAC формата : Да
Параметр ReFrames формата : 9 кадров
Идентификатор кодека : V_MPEG4/ISO/AVC
Продолжительность : 1 ч. 7 м.
Вид битрейта : Переменный
Битрейт : 4139 Кбит/сек
Максимальный битрейт : 4500 Кбит/сек
Ширина : 1280 пикселей
Высота : 720 пикселей
Соотношение сторон : 16:9
Режим частоты кадров : Постоянный
Частота кадров : 23,976 (24000/1001) кадра/сек
Стандарт вещания : Component
Цветовое пространство : YUV
Субдискретизация насыщенности : 4:2:0
Битовая глубина : 8 бит
Тип развёртки : Прогрессивная
Бит/(Пиксели*Кадры) : 0.183
Размер потока : 1,92 Гбайт (90%)
Default : Да
Forced : Нет
Цветовой диапазон : Limited
Основные цвета : BT.709
Характеристики трансфера : BT.709
Коэффициенты матрицы : BT.709

Аудио
Идентификатор : 2
Формат : AC-3
Формат/Информация : Audio Coding 3
Расширение режима : CM (complete main)
Параметр Endianness формата : Big
Идентификатор кодека : A_AC3
Продолжительность : 1 ч. 7 м.
Вид битрейта : Постоянный
Битрейт : 384 Кбит/сек
Каналы : 2 канала
Расположение каналов : Front: L R
Частота : 48,0 КГц
Частота кадров : 31,250 кадров/сек (1536 spf)
Метод сжатия : С потерями
Размер потока : 187 Мбайт (8%)
Default : Да
Forced : Нет

pb.wtf



Скачать Крысобургер через торрент http://i100.fastpic.ru/big/2018/0105/a7/b52b398f2c7b2839d03731453e4e9aa7.png Скачать фильм Крысобургер через торрент бесплантно в хорошем качестве Описание: Сказка на современный лад про бедную сироту, её безвольного отца, злобную мачеху и злодея, который зарабатывает на жизнь продавая ... 8.5 10 6
Торрент: Зарегистрирован [2018-01-05 07:02] · скачан: 53 раз
Статус: T временная
Размер: 2.15 GB
Как cкачать? Как скачать Крысобургер через торрент | qTorrent

% Раздел Тема Автор DL S | L
T Фильмы (мультфильмы) cо спонсором показа (Новинки AVI/MKV) [ 1.37 GB ] Крысобургер / Ratburger [2017 WEBRip] MVO ["Синема УС"] bober100 Скачать
1 | 0

28-11-2019 20:33  

Отключить всю рекламу на сайте

    Дорогой пользователь! Огромная просьба, поблагодарите релизера, оцените раздачу и оставьте свои комментарий, если Вы скачали Крысобургер через торрент бесплатно! Внесите свою лепту в развитие PiratBit!
    Комментировать посты могут только пользователи прошедшие не сложную регистрацию
    Показать сообщения:    

    Крысобургер через торрент
    Скачать бесплатно Крысобургер
    Крысобургер скачать торрент
    Крысобургер смотреть онлайн
    Cкачать фильм Крысобургер бесплатно
    Крысобургер скачать торрент в хорошем качестве
    Крысобургер смотреть онлайн бесплатно в хорошем качестве


    Вы не можете начинать темы
    Вы не можете отвечать на сообщения
    Вы не можете редактировать свои сообщения
    Вы не можете удалять свои сообщения
    Вы не можете голосовать в опросах
    Вы не можете прикреплять файлы к сообщениям
    Вы можете скачивать файлы