Ссылка на приватное зеркало всего за 1$. Внимание количество ограничено!!!

iTunes

iTunes

iTunes

1

iTunes

iTunes

iTunes

iTunes

iTunes

30
pack

$ от Little Big

ВАЖНО

!!Акция!!

Alien_RageХит недели

RePack

Resident Evil 21

ИГРА 18+

pack

RePack

jed

!!Акция!!

Alien_Rage

RePack

fifa19

RePack

Assassins Creed: Odyssey

RePack

NEED FOR SPEED™ PAYBACK

4 сезон

9 сезон

Бесстыжие 9 сезон

Все сериалы

все сериалы на PB.wtf

RePack

FAR CRY 5
  

Яркость / Bright (Дэвид Эйр) [2017, фантастика, фэнтези, боевик, триллер, криминал, WEBRip 720p] MVO [AlexFilm] pb.wtf

Яркость через торрент pb.wtf

Размер: 2.84 GB | Добавлен: 2 года 6 мес. назад | Торрент скачан:1010 раз
Скачать  

05-01-2018 09:22 Яркость Скачать торрент  

Яркость / BrightГод выпуска: 2017
Страна: США
Жанр: фантастика, фэнтези, боевик, триллер, криминал
Продолжительность: 01:57:46
Перевод: Профессиональный многоголосый - скриншот  
Субтитры: Русские
***Примечание: Без рекламы.

Режиссер: Дэвид Эйр

rating

В ролях:

Уилл Смит, Нуми Рапас, Джоэл Эдгертон, Люси Фрай, Джей Эрнандес, Эдгар Рамирес, Айк Баринхолц, Вероника Нго, Хэппи Андерсон, Брэд Уильям Хенке

Описание:

Действие разворачивается в Лос-Анджелесе, в вымышленном фантастическом мире, где царствуют не только высокие технологии, но и магия. В городе бок о бок с людьми живут эльфы, орки и другие сверхъестественные существа. Главный герой служит в полицейском департаменте, в специальном отделе, занимающимся раскрытием преступлений, в которых замешаны магические силы. Пытаясь раскрыть очередное дело, он вынужден объединиться с орком. Вместе им предстоит найти и защитить древний мистический артефакт, обладающий могущественными способностями, от рук злоумышленников.

Перевод: Александр Лазарев;
Монтаж и сведение звука: Михаил Суслов;
Озвучание:

Евгения Тихонова,
Екатерина Муравицкая,
Кирилл Патрино,
Владимир Курдов,
Константин Федосеев,
Дмитрий Лунёв,
Михаил Суслов.

Качество: WEBRip 720p
Формат: MKV
Видео кодек: H.264
Аудио кодек: AC3

Видео: MPEG-4 AVC, 2700 Кбит/с, 1280х536
Аудио#1: Русский (AC3, 6 ch, 384 Кбит/с)
Аудио#2: английский (AC3, 6 ch, 384 Кбит/с)
* На момент выхода фильм стал самым дорогим проектом компании Netflix. Его бюджет составил $90 миллионов.
* Макс Лэндис получил за сценарий фильма $3,5 миллиона.

скриншот  скриншот  скриншот  

Формат : Matroska
Версия формата : Version 4 / Version 2
Размер файла : 2,84 Гбайт
Продолжительность : 1 ч. 57 м.
Общий поток : 3455 Кбит/сек
Название фильма : Bright @ AlexFilm
Дата кодирования : UTC 2018-01-03 19:47:55
Программа кодирования : mkvmerge v7.1.0 ('Good Love') 64bit built on Jul 27 2014 13:06:55
Библиотека кодирования : libebml v1.3.0 + libmatroska v1.4.1

Видео
Идентификатор : 1
Формат : AVC
Формат/Информация : Advanced Video Codec
Профиль формата : High@L4.1
Параметр CABAC формата : Да
Параметр ReFrames формата : 4 кадра
Идентификатор кодека : V_MPEG4/ISO/AVC
Продолжительность : 1 ч. 57 м.
Битрейт : 2700 Кбит/сек
Ширина : 1280 пикселей
Высота : 536 пикселей
Соотношение сторон : 2,40:1
Режим частоты кадров : Постоянный
Частота кадров : 24,000 кадра/сек
Цветовое пространство : YUV
Субдискретизация насыщенности : 4:2:0
Битовая глубина : 8 бит
Тип развёртки : Прогрессивная
Бит/(Пиксели*Кадры) : 0.164
Размер потока : 2,15 Гбайт (76%)
Библиотека кодирования : x264 core 142 r2479 dd79a61
Настройки программы : cabac=1 / ref=1 / deblock=1:0:0 / analyse=0x3:0x113 / me=hex / subme=2 / psy=1 / psy_rd=1.00:0.00 / mixed_ref=0 / me_range=16 / chroma_me=1 / trellis=0 / 8x8dct=1 / cqm=0 / deadzone=21,11 / fast_pskip=1 / chroma_qp_offset=0 / threads=12 / lookahead_threads=4 / sliced_threads=0 / nr=0 / decimate=1 / interlaced=0 / bluray_compat=0 / constrained_intra=0 / bframes=3 / b_pyramid=2 / b_adapt=1 / b_bias=0 / direct=1 / weightb=1 / open_gop=0 / weightp=1 / keyint=240 / keyint_min=24 / scenecut=40 / intra_refresh=0 / rc_lookahead=10 / rc=abr / mbtree=1 / bitrate=2700 / ratetol=1.0 / qcomp=0.60 / qpmin=0 / qpmax=69 / qpstep=4 / vbv_maxrate=62500 / vbv_bufsize=78125 / nal_hrd=none / filler=0 / ip_ratio=1.40 / aq=1:1.00
Default : Да
Forced : Нет
Цветовой диапазон : Limited
Основные цвета : BT.709
Характеристики трансфера : BT.709
Коэффициенты матрицы : BT.709

Аудио #1
Идентификатор : 2
Формат : AC-3
Формат/Информация : Audio Coding 3
Расширение режима : CM (complete main)
Параметр Endianness формата : Big
Идентификатор кодека : A_AC3
Продолжительность : 1 ч. 57 м.
Вид битрейта : Постоянный
Битрейт : 384 Кбит/сек
Каналы : 6 каналов
Расположение каналов : Front: L C R, Side: L R, LFE
Частота : 48,0 КГц
Частота кадров : 31,250 кадров/сек (1536 spf)
Метод сжатия : С потерями
Задержка видео : -83 мс.
Размер потока : 323 Мбайт (11%)
Заголовок : DD5.1 AlexFilm
Язык : Russian
Default : Да
Forced : Нет

Аудио #2
Идентификатор : 3
Формат : AC-3
Формат/Информация : Audio Coding 3
Расширение режима : CM (complete main)
Параметр Endianness формата : Big
Идентификатор кодека : A_AC3
Продолжительность : 1 ч. 57 м.
Вид битрейта : Постоянный
Битрейт : 384 Кбит/сек
Каналы : 6 каналов
Расположение каналов : Front: L C R, Side: L R, LFE
Частота : 48,0 КГц
Частота кадров : 31,250 кадров/сек (1536 spf)
Метод сжатия : С потерями
Задержка видео : -5 мс.
Размер потока : 323 Мбайт (11%)
Заголовок : DD5.1 Original
Язык : English
Default : Нет
Forced : Нет

Текст
Идентификатор : 4
Формат : UTF-8
Идентификатор кодека : S_TEXT/UTF8
Идентификатор кодека/Информация : UTF-8 Plain Text
Язык : Russian
Default : Да
Forced : Да

pb.wtf



Скачать Яркость через торрент http://i3.imageban.ru/out/2017/12/23/1cf3138a00f48806103e7a7d2a8f34ab.png Скачать фильм Яркость через торрент бесплантно в хорошем качестве Описание: Действие разворачивается в Лос-Анджелесе, в вымышленном фантастическом мире, где царствуют не только высокие технологии, но и ... 9.3 10 22
Торрент: Зарегистрирован [2018-01-05 09:22] · скачан: 1 010 раз
Статус: √ проверено
Размер: 2.84 GB
Как cкачать? Как скачать Яркость через торрент | qTorrent

% Раздел Тема Автор DL S | L
Фильмы 2017 [DVDrip, WEB-DLRip, HDrip] (DUB, MVO) [ 1.55 GB ] Яркость / Bright [2017 WEB-DLRip-AVC] MVO [HDRezka Studio] bober100 Скачать
1 | 0
Ultra HD (UHD: 2K, 4K, 8K) — видео сверхвысокой чёткости [ 23.32 GB ] Яркость / Bright [2017 UHD WEBRip 2160p] MVO [BaibaKo] + ENG + Subs Loc387 Скачать
2 | 0
Ultra HD (UHD: 2K, 4K, 8K) — видео сверхвысокой чёткости [ 11.78 GB ] Яркость / Bright [2017 UHD WEBRip 2160p] 6xMVO sheker187 Скачать
1 | 0
Фильмы (WEB-DL 720p, 1080p) [ 6.98 GB ] Яркость / Bright [2017 WEBRip 1080p] MVO [Jaskier] bober100 Скачать
2 | 0
Фильмы (WEB-DL 720p, 1080p) [ 3.62 GB ] Яркость / Bright [2017 WEBRip 720p] MVO [Jaskier] bober100 Скачать
1 | 0
Фильмы 2017 [DVDrip, WEB-DLRip, HDrip] (DUB, MVO) [ 1.46 GB ] Яркость / Bright [2017 WEBRip] MVO [Jaskier] bober100 Скачать
1 | 0
Фильмы (WEB-DL 720p, 1080p) [ 3.52 GB ] Яркость / Bright [2017 WEBRip 720p] MVO [HDrezka Studio] WorldSM Скачать
1 | 0

28-11-2019 20:33  

Отключить всю рекламу на сайте

06-01-2018 16:47 Яркость Скачать торрент  

ожидал большего,так се на 3pb.wtf



    Дорогой пользователь! Огромная просьба, поблагодарите релизера, оцените раздачу и оставьте свои комментарий, если Вы скачали Яркость через торрент бесплатно! Внесите свою лепту в развитие PiratBit!
    Комментировать посты могут только пользователи прошедшие не сложную регистрацию
    Показать сообщения:    

    Яркость через торрент
    Скачать бесплатно Яркость
    Яркость скачать торрент
    Яркость смотреть онлайн
    Cкачать фильм Яркость бесплатно
    Яркость скачать торрент в хорошем качестве
    Яркость смотреть онлайн бесплатно в хорошем качестве


    Вы не можете начинать темы
    Вы не можете отвечать на сообщения
    Вы не можете редактировать свои сообщения
    Вы не можете удалять свои сообщения
    Вы не можете голосовать в опросах
    Вы не можете прикреплять файлы к сообщениям
    Вы можете скачивать файлы