Ссылка на приватное зеркало нашего сайта всего за 1$. Внимание количество ограничено!!!

2 сезон

iTunes

1 сезон

1

2 сезон

2 сезон

iTunes

1 сезон

RePack

30

Ultimate

ВАЖНО

ИГРА 18+

pack

RePack

MK11
pack

Забери бонус

RePack

jed

!!Акция!!

Alien_Rage

RePack

fifa19

RePack

Assassins Creed: Odyssey

RePack

NEED FOR SPEED™ PAYBACK

4 сезон

9 сезон

Бесстыжие 9 сезон

Все сериалы

все сериалы на PB.wtf

RePack

FAR CRY 5
  

9-1-1 / 9-1-1 / Сезон: 1 / Серии: 1-10 из 10 (Брэдли Букер) [2018, Драма, WEBRip, WEB-DLRip] MVO [BaibaKo] pb.wtf

9-1-1 через торрент pb.wtf

Размер: 5.96 GB | Добавлен: 2 года 8 мес. назад | Торрент скачан:40 раз
Скачать  

05-01-2018 11:46 9-1-1 Скачать торрент  

9-1-1 / 9-1-1Год выпуска: 2018
Страна: США
Жанр: Драма
Продолжительность: ~ 00:50:00
Перевод: Профессиональный многоголосый |
Субтитры: отсутствуют

Режиссер: Брэдли Букер

rating

В ролях:

Анджела Бассетт, Конни Бриттон, Корина Мессиа, Бриэль Барбаска, Рэйчел Бритаг, Лондон Чешир, Адина ДеСоуза, Алекс Лойназ

Описание:

Сериал расскажет о работе полицейских, «Скорой помощи» и пожарной службы. Все они выполняют свой долг, часто рискуя жизнью и попадая в самые пугающие и шокирующие ситуации. Смысл их ежедневной работы состоит в охране безопасности улиц и помощи всем, кто в ней нуждается. Полицейские, пожарные и парамедики работают бок о бок в жестких условиях большого города. Эти экстренные службы должны стараться балансировать, спасая тех, кто находится в наиболее уязвимом положении, и при этом решать проблемы в их собственной жизни.

Качество: WEBRip, WEB-DLRip
Формат: AVI

Видео: ~ 1600 Кбит/с, 720x400
Аудио#1: Русский (AC3, 2 ch, 192 Кбит/с)
Аудио#2: английский (AC3, 2 ch, 192 Кбит/с)
скриншот  скриншот  скриншот  

Общее
Полное имя : D:\9-1-1.s01.WEBRip.Rus.Eng.BaibaKo.tv\9-1-1.s01.WEBRip.Rus.Eng.BaibaKo.tv.avi
Формат : AVI
Формат/Информация : Audio Video Interleave
Размер файла : 649 Мбайт
Продолжительность : 45 м. 8 с.
Общий поток : 2011 Кбит/сек
Программа кодирования : VirtualDubMod 1.5.10.2 (build 2540/release)
Библиотека кодирования : VirtualDubMod build 2540/release

Видео
Идентификатор : 0
Формат : MPEG-4 Visual
Профиль формата : Advanced Simple@L5
Параметр BVOP формата : 2
Параметр QPel формата : Нет
Параметр GMC формата : Без точки перехода
Параметр матрицы формата : Default (MPEG)
Идентификатор кодека : XVID
Идентификатор кодека/Подсказка : XviD
Продолжительность : 45 м. 8 с.
Битрейт : 1613 Кбит/сек
Ширина : 720 пикселей
Высота : 400 пикселей
Соотношение сторон : 16:9
Частота кадров : 23,976 (23976/1000) кадра/сек
Цветовое пространство : YUV
Субдискретизация насыщенности : 4:2:0
Битовая глубина : 8 бит
Тип развёртки : Прогрессивная
Метод сжатия : С потерями
Бит/(Пиксели*Кадры) : 0.234
Размер потока : 521 Мбайт (80%)
Библиотека кодирования : XviD 1.2.1 (UTC 2008-12-04)

Аудио #1
Идентификатор : 1
Формат : AC-3
Формат/Информация : Audio Coding 3
Расширение режима : CM (complete main)
Параметр Endianness формата : Big
Идентификатор кодека : 2000
Продолжительность : 45 м. 8 с.
Вид битрейта : Постоянный
Битрейт : 192 Кбит/сек
Каналы : 2 канала
Расположение каналов : Front: L R
Частота : 48,0 КГц
Частота кадров : 31,250 кадров/сек (1536 spf)
Метод сжатия : С потерями
Задержка видео : 2 мс.
Размер потока : 62,0 Мбайт (10%)
Выравнивание : Разделение по промежуткам
Продолжительность промежутка : 42 мс. (1,00 видеокадр)
Время предзагрузки промежутка : 500 мс.

Аудио #2
Идентификатор : 2
Формат : AC-3
Формат/Информация : Audio Coding 3
Расширение режима : CM (complete main)
Параметр Endianness формата : Big
Идентификатор кодека : 2000
Продолжительность : 45 м. 8 с.
Вид битрейта : Постоянный
Битрейт : 192 Кбит/сек
Каналы : 2 канала
Расположение каналов : Front: L R
Частота : 48,0 КГц
Частота кадров : 31,250 кадров/сек (1536 spf)
Метод сжатия : С потерями
Размер потока : 62,0 Мбайт (10%)
Выравнивание : Разделение по промежуткам
Продолжительность промежутка : 42 мс. (1,00 видеокадр)
Время предзагрузки промежутка : 500 мс.

Внимание! Раздача ведётся путём добавления новых серий; при каждом добавлении создаётся новый торрент. Чтобы начать докачку новой серии, пользователям необходимо сделать следующее:
(1) остановить скачивание,
(2) удалить старый торрент у себя из клиента (старые серии удалять не надо),
(3) скачать новый торрент и запустить его у себя в клиенте вместо старого, при этом указать клиенту путь в старую папку куда и должно происходить скачивание новых серий.
Ваш клиент при этом должен произвести хеширование (проверку) старой папки (если не производит сам - помогите ему сделать это), и будет докачивать только те серии которых у вас ещё нет. Старые серии при этом не удаляются, а продолжают раздаваться!
Eсли вы уже удалили старые серии, то предотвратить повторную закачку старых серий можно, отжав галочку в соответствующих местах при запуске нового торрента. По возможности, желательно не удалять старые серии как можно дольше чтобы релизёр не столько продолжал раздавать старые серии, а смог сконцентрироваться на новых.
pb.wtf



Скачать 9-1-1 через торрент http://i100.fastpic.ru/big/2018/0105/6f/9c1caafe82ff48e2987786c0c949336f.jpg Скачать фильм 9-1-1 через торрент бесплантно в хорошем качестве Описание: Сериал расскажет о работе полицейских, «Скорой помощи» и пожарной службы. Все они выполняют свой долг, часто рискуя жизнью и ... 10 10 4
Торрент: Зарегистрирован [2018-03-23 13:57] · скачан: 40 раз
Статус: √ проверено
Размер: 5.96 GB
Как cкачать? Как скачать 9-1-1 через торрент | qTorrent

% Раздел Тема Автор DL S | L
Шерлок [ 10.03 GB ] Шерлок / Sherlock / Сезон: 1-3 / Серии: 1-9 из 9 [2010-2014 HDTVRip] [Первый канал] killermax2013 Скачать
2 | 0
Зарубежные сериалы [ 14.03 GB ] Почему женщины убивают / Why Women Kill / Сезон: 1 / Серии: 1-9 из 10 [2019 WEB-DL 720p] MVO [Lostfilm] bober100 Скачать
1 | 0
Зарубежные сериалы [ 10.7 GB ] Страшные истории в двух предложениях / Two Sentence Horror Stories / Сезон: 2 / Серии: 1-9 из 9 [2019 WEBRip 1080p] [MVO] killermax2013 Скачать
1 | 0
Зарубежные сериалы [ 14.05 GB ] Охотник за разумом / Mindhunter / Сезон: 2 / Серии: 1-9 из 9 [2019 WEB-DL 1080p] MVO [Jaskier] bober100 Скачать
1 | 0
Зарубежные сериалы [ 33.27 GB ] Становясь богом в центральной Флориде / On becoming a god in central Florida / Сезон: 1 / Серии: 1-8 из 9 [2019 WEBRip 1080p] MVO [HDRezka Studio] bober100 Скачать
1 | 0
Аудио и видео ролики (Приколы и юмор) [ 5.28 GB ] Наркоман Павлик / Сезон: 7 / Серии: 1-9 из 10 [2019 короткометражный WEB-DL 1080p] killermax2013 Скачать
1 | 0
Зарубежные сериалы [ 33.79 GB ] Джессика Джонс / Jessica Jones / Сезон: 1 / Серии: 1-9 из 13 [2015 BDRip 1080p] MVO [TVShows] bober100 Скачать
1 | 0


Последний раз редактировалось: bober100 (2018-03-23 13:57), всего редактировалось 3 раз(а)

28-11-2019 20:33  

Отключить всю рекламу на сайте

29-01-2018 05:47 9-1-1 Скачать торрент  

+4pb.wtf



23-03-2018 14:44 9-1-1 Скачать торрент  

как надоело что во все фильмы америкосы суют гомиков и лесбиянокpb.wtf



    Дорогой пользователь! Огромная просьба, поблагодарите релизера, оцените раздачу и оставьте свои комментарий, если Вы скачали 9-1-1 через торрент бесплатно! Внесите свою лепту в развитие PiratBit!
    Комментировать посты могут только пользователи прошедшие не сложную регистрацию
    Показать сообщения:    

    9-1-1 через торрент
    Скачать бесплатно 9-1-1
    9-1-1 скачать торрент
    9-1-1 смотреть онлайн
    Cкачать фильм 9-1-1 бесплатно
    9-1-1 скачать торрент в хорошем качестве
    9-1-1 смотреть онлайн бесплатно в хорошем качестве


    Вы не можете начинать темы
    Вы не можете отвечать на сообщения
    Вы не можете редактировать свои сообщения
    Вы не можете удалять свои сообщения
    Вы не можете голосовать в опросах
    Вы не можете прикреплять файлы к сообщениям
    Вы можете скачивать файлы