Ссылка на приватное зеркало нашего сайта всего за 1$. Внимание количество ограничено!!!

2 сезон

iTunes

1 сезон

1

iTunes

iTunes

iTunes

1 сезон

RePack

30

ИГРА 18+

pack

ВАЖНО

!!Акция!!

Alien_RageХит недели

RePack

MK11
pack

Забери бонус

RePack

jed

!!Акция!!

Alien_Rage

RePack

fifa19

RePack

Assassins Creed: Odyssey

RePack

NEED FOR SPEED™ PAYBACK

4 сезон

9 сезон

Бесстыжие 9 сезон

Все сериалы

все сериалы на PB.wtf

RePack

FAR CRY 5
  

Королева при исполнении / Серии 1-2 из 2 (Ольга Лысенко) [2018, Детектив, мелодрама, SATRip] pb.wtf

Королева при исполнении через торрент pb.wtf

Размер: 1.12 GB | Добавлен: 2 года 9 мес. назад | Торрент скачан:182 раза
Скачать  

05-01-2018 15:47 Королева при исполнении Скачать торрент  

Королева при исполнении
Год выпуска: 2018
Страна: Россия
Жанр: Детектив, мелодрама
Продолжительность: 2 x ~ 00:45:00
Субтитры: отсутствуют

Режиссер: Ольга Лысенко



В ролях:

Ольга Арнтгольц, Станислав Бондаренко, Дмитрий Ефремов...

Описание:

Если бы Даше сказали, что она будет главной претенденткой на титул Королевы красоты, она бы покрутила пальцем у виска. Даша не считала себя красавицей и никогда к этому не стремилась. Она хотела ловить преступников — и вот ей 26, и она капитан полиции. Дело о покушении на одну из участниц городского конкурса красоты поначалу не показалось Даше сложным. Да и к самому конкурсу Даша относилась с нескрываемым пренебрежением. Однако разобраться в хитросплетении страстей и интриг, царивших на конкурсе, удалось не сразу. Для этого Даше пришлось нацепить ненавистные каблуки, нарастить ресницы, завить кудри — и доказать всем, что сила женщины — далеко не только в красоте. А сама она с удивлением поняла простую истину: красота — она, в общем, действительно страшная сила!

Качество: SATRip
Формат: AVI

Видео: XviD build 73, 720x400 (16:9), 25.000 fps, 1550 Kbps (~ 0.215 bit/pixel)
Аудио: 48.0 kHz, AC3, 2/0 ch, 192 kbps
скриншот   скриншот   скриншот   скриншот  

Общее
Полное имя : D:\Koroleva.Pri.Ispolnenii.2017.XviD.SATRip.GeneralFilm\Koroleva.Pri.Ispolnenii.e01.avi
Формат : AVI
Формат/Информация : Audio Video Interleave
Размер файла : 562 Мбайт
Продолжительность : 44 м. 49 с.
Общий поток : 1752 Кбит/сек
Программа кодирования : VirtualDubMod 1.5.10.3 | www.virtualdub-fr.org || (build 2550/release)
Библиотека кодирования : VirtualDubMod build 2550/release

Видео
Идентификатор : 0
Формат : MPEG-4 Visual
Профиль формата : Advanced Simple@L5
Параметр BVOP формата : 1
Параметр QPel формата : Нет
Параметр GMC формата : Без точки перехода
Параметр матрицы формата : Выборочная
Идентификатор кодека : DX50
Идентификатор кодека/Подсказка : DivX 5
Продолжительность : 44 м. 49 с.
Битрейт : 1550 Кбит/сек
Ширина : 720 пикселей
Высота : 400 пикселей
Соотношение сторон : 16:9
Частота кадров : 25,000 кадров/сек
Цветовое пространство : YUV
Субдискретизация насыщенности : 4:2:0
Битовая глубина : 8 бит
Тип развёртки : Прогрессивная
Метод сжатия : С потерями
Бит/(Пиксели*Кадры) : 0.215
Размер потока : 497 Мбайт (88%)
Библиотека кодирования : XviD 73

Аудио
Идентификатор : 1
Формат : AC-3
Формат/Информация : Audio Coding 3
Расширение режима : CM (complete main)
Параметр Endianness формата : Big
Идентификатор кодека : 2000
Продолжительность : 44 м. 49 с.
Вид битрейта : Постоянный
Битрейт : 192 Кбит/сек
Каналы : 2 канала
Расположение каналов : Front: L R
Частота : 48,0 КГц
Частота кадров : 31,250 кадров/сек (1536 spf)
Метод сжатия : С потерями
Размер потока : 61,6 Мбайт (11%)
Выравнивание : Разделение по промежуткам
Продолжительность промежутка : 40 мс. (1,00 видеокадр)
Время предзагрузки промежутка : 500 мс.

pb.wtf



Скачать Королева при исполнении через торрент http://i99.fastpic.ru/big/2018/0105/9a/7f805a18a6ed751d87a402fb8b7b919a.jpg Скачать фильм Королева при исполнении через торрент бесплантно в хорошем качестве Описание: Если бы Даше сказали, что она будет главной претенденткой на титул Королевы красоты, она бы покрутила пальцем у виска. Даша не ... 10 10 5
Торрент: Зарегистрирован [2018-01-05 15:47] · скачан: 182 раз
Статус: √ проверено
Размер: 1.12 GB
Как cкачать? Как скачать Королева при исполнении через торрент | qTorrent

28-11-2019 20:33  

Отключить всю рекламу на сайте

    Дорогой пользователь! Огромная просьба, поблагодарите релизера, оцените раздачу и оставьте свои комментарий, если Вы скачали Королева при исполнении через торрент бесплатно! Внесите свою лепту в развитие PiratBit!
    Комментировать посты могут только пользователи прошедшие не сложную регистрацию
    Показать сообщения:    

    Королева при исполнении через торрент
    Скачать бесплатно Королева при исполнении
    Королева при исполнении скачать торрент
    Королева при исполнении смотреть онлайн
    Cкачать фильм Королева при исполнении бесплатно
    Королева при исполнении скачать торрент в хорошем качестве
    Королева при исполнении смотреть онлайн бесплатно в хорошем качестве


    Вы не можете начинать темы
    Вы не можете отвечать на сообщения
    Вы не можете редактировать свои сообщения
    Вы не можете удалять свои сообщения
    Вы не можете голосовать в опросах
    Вы не можете прикреплять файлы к сообщениям
    Вы можете скачивать файлы