Ссылка на приватное зеркало нашего сайта всего за 1$. Внимание количество ограничено!!!

2 сезон

iTunes

1 сезон

1

iTunes

iTunes

iTunes

1 сезон

RePack

30

ИГРА 18+

pack

ВАЖНО

!!Акция!!

Alien_RageХит недели

RePack

MK11
pack

Забери бонус

RePack

jed

!!Акция!!

Alien_Rage

RePack

fifa19

RePack

Assassins Creed: Odyssey

RePack

NEED FOR SPEED™ PAYBACK

4 сезон

9 сезон

Бесстыжие 9 сезон

Все сериалы

все сериалы на PB.wtf

RePack

FAR CRY 5
  

Дом у озера / The Lake House (Алехандро Агрести) [2006, фэнтези, драма, мелодрама, BDRip 1080p by msltel] DUB, DVO, 2 x AVO pb.wtf

Дом у озера через торрент pb.wtf

Размер: 9.35 GB | Добавлен: 2 года 9 мес. назад | Торрент скачан:173 раза
Скачать  

06-01-2018 07:19 Дом у озера Скачать торрент  

Название: Дом у озера
Оригинальное название: The Lake House
Год выпуска: 2006
Страна: США
Жанр: фэнтези, драма, мелодрама
Продолжительность: 01:38:33
Перевод: дублированный, профессиональный двухголосый, авторский

Режиссер: Алехандро Агрести
В ролях: Киану Ривз, Сандра Баллок, Кристофер Пламмер, Эбон Мосс-Бакрак, Виллеке ван Аммельрой, Дилан Уолш, Шохре Агдашлу, Линн Коллинз, Майк Бакарелла, Кевин Бреннан, Фрэнк Каети, Алайя Карр, Дженнифер Кларк, Скотт Елиас, Лори Энн Гердиш, Майкл Эндрю Горман, Дженнифер Керн, Джой Косей, Синтия Кэй МакУильямс, Индия Нейлан, Нора Ньюбро, Марисса Ньютон, Миа Парк, Пегги Родер, Джейсон Уэллс, Жаклин Уильямс

О фильме: Кейт Форстер, после расставания с парнем, решает переехать из арендуемого дома, чтобы начать всё с чистого листа, а заодно, быть ближе к работе. Она оставляет в почтовом ящике письмо для следующего жильца, объясняя ему некоторые нюансы. Новым съёмщиком оказывается Алекс Уайлер — одинокий архитектор, отец которого и построил этот дом. Он читает послание, но не может понять, почему описанное Кейт не совпадает с действительностью. Это побуждает Алекса написать ответ. Через несколько дней переписки герои понимают, что живут в разное время: он в 2004 году, она в 2006. И лишь загадочный почтовый ящик служит им соединяющим мостиком...



Качество: BDRip 1080p
Формат: MKV
Видео: MPEG-4 AVC, 11 Mбит/с, 1920х796, 23.976 кадр/с
Аудио 1: русский, AC3, 448 kbps, 6 ch [дублированный]
Аудио 2: русский, AC3, 448 kbps, 6 ch [профессиональный двухголосый, Superbit]
Аудио 3: русский, AC3, 448 kbps, 6 ch [авторский, Михаил Иванов]
Аудио 4: русский, AC3, 640 kbps, 6 ch [авторский, Владимир Королёв]
Аудио 5: английский, AC3, 640 kbps, 6 ch, 48 kHz [оригинал]
Субтитры 1: русские
Субтитры 2: английские
Неименованные главы/чаптеры.
Общее
Уникальный идентификатор : 177926692653100184123341225307397231711 (0x85DB6F3D44D5B2FA930B82C50FD5145F)
Полное имя : D:\Video\Дом у озера.2006.BDRip.1080p by msltel.mkv
Формат : Matroska
Версия формата : Version 4 / Version 2
Размер файла : 9,35 Гбайт
Продолжительность : 1 ч. 38 м.
Общий поток : 13,6 Мбит/сек
Название фильма : Rip by msltel
Дата кодирования : UTC 2018-01-06 03:20:18
Программа кодирования : mkvmerge v8.2.0 ('World of Adventure') 64bit
Библиотека кодирования : libebml v1.3.1 + libmatroska v1.4.2

Видео
Идентификатор : 1
Формат : AVC
Формат/Информация : Advanced Video Codec
Профиль формата : High@L4.1
Настройки формата : CABAC / 4 Ref Frames
Параметр CABAC формата : Да
Параметр RefFrames формата : 4 кадра
Идентификатор кодека : V_MPEG4/ISO/AVC
Продолжительность : 1 ч. 38 м.
Битрейт : 11,0 Мбит/сек
Ширина : 1920 пикселей
Высота : 796 пикселей
Соотношение сторон : 2,40:1
Режим частоты кадров : Постоянный
Частота кадров : 23,976 (24000/1001) кадра/сек
Цветовое пространство : YUV
Субдискретизация насыщенности : 4:2:0
Битовая глубина : 8 бит
Тип развёртки : Прогрессивная
Бит/(Пиксели*Кадры) : 0.299
Размер потока : 7,54 Гбайт (81%)
Библиотека кодирования : x264 core 146 r2538 121396c
Настройки программы : cabac=1 / ref=4 / deblock=1:-3:-2 / analyse=0x3:0x113 / me=umh / subme=11 / psy=1 / psy_rd=1.00:0.15 / mixed_ref=1 / me_range=32 / chroma_me=1 / trellis=2 / 8x8dct=1 / cqm=0 / deadzone=21,11 / fast_pskip=0 / chroma_qp_offset=-3 / threads=6 / lookahead_threads=1 / sliced_threads=0 / nr=0 / decimate=1 / interlaced=0 / bluray_compat=0 / constrained_intra=0 / bframes=11 / b_pyramid=2 / b_adapt=2 / b_bias=0 / direct=1 / weightb=1 / open_gop=0 / weightp=2 / keyint=230 / keyint_min=23 / scenecut=40 / intra_refresh=0 / rc_lookahead=40 / rc=crf / mbtree=0 / crf=17.8 / qcomp=0.60 / qpmin=0 / qpmax=69 / qpstep=4 / vbv_maxrate=62500 / vbv_bufsize=78125 / crf_max=0.0 / nal_hrd=none / filler=0 / ip_ratio=1.40 / pb_ratio=1.30 / aq=1:1.00
Язык : English
Default : Да
Forced : Нет

Аудио #1
Идентификатор : 2
Формат : AC-3
Формат/Информация : Audio Coding 3
Идентификатор кодека : A_AC3
Продолжительность : 1 ч. 38 м.
Вид битрейта : Постоянный
Битрейт : 448 Кбит/сек
Каналы : 6 каналов
Расположение каналов : Front: L C R, Side: L R, LFE
Частота : 48,0 КГц
Частота кадров : 31,250 кадров/сек (1536 SPF)
Битовая глубина : 16 бит
Метод сжатия : С потерями
Размер потока : 316 Мбайт (3%)
Заголовок : DUB
Язык : Russian
ServiceKind/String : Complete Main
Default : Да
Forced : Нет

Аудио #2
Идентификатор : 3
Формат : AC-3
Формат/Информация : Audio Coding 3
Идентификатор кодека : A_AC3
Продолжительность : 1 ч. 38 м.
Вид битрейта : Постоянный
Битрейт : 448 Кбит/сек
Каналы : 6 каналов
Расположение каналов : Front: L C R, Side: L R, LFE
Частота : 48,0 КГц
Частота кадров : 31,250 кадров/сек (1536 SPF)
Битовая глубина : 16 бит
Метод сжатия : С потерями
Размер потока : 316 Мбайт (3%)
Заголовок : DVO.Superbit
Язык : Russian
ServiceKind/String : Complete Main
Default : Нет
Forced : Нет

Аудио #3
Идентификатор : 4
Формат : AC-3
Формат/Информация : Audio Coding 3
Идентификатор кодека : A_AC3
Продолжительность : 1 ч. 38 м.
Вид битрейта : Постоянный
Битрейт : 448 Кбит/сек
Каналы : 6 каналов
Расположение каналов : Front: L C R, Side: L R, LFE
Частота : 48,0 КГц
Частота кадров : 31,250 кадров/сек (1536 SPF)
Битовая глубина : 16 бит
Метод сжатия : С потерями
Размер потока : 316 Мбайт (3%)
Заголовок : Михаил Иванов
Язык : Russian
ServiceKind/String : Complete Main
Default : Нет
Forced : Нет

Аудио #4
Идентификатор : 5
Формат : AC-3
Формат/Информация : Audio Coding 3
Идентификатор кодека : A_AC3
Продолжительность : 1 ч. 38 м.
Вид битрейта : Постоянный
Битрейт : 640 Кбит/сек
Каналы : 6 каналов
Расположение каналов : Front: L C R, Side: L R, LFE
Частота : 48,0 КГц
Частота кадров : 31,250 кадров/сек (1536 SPF)
Битовая глубина : 16 бит
Метод сжатия : С потерями
Размер потока : 451 Мбайт (5%)
Заголовок : Владимир Королёв
Язык : Russian
ServiceKind/String : Complete Main
Default : Нет
Forced : Нет

Аудио #5
Идентификатор : 6
Формат : AC-3
Формат/Информация : Audio Coding 3
Идентификатор кодека : A_AC3
Продолжительность : 1 ч. 38 м.
Вид битрейта : Постоянный
Битрейт : 640 Кбит/сек
Каналы : 6 каналов
Расположение каналов : Front: L C R, Side: L R, LFE
Частота : 48,0 КГц
Частота кадров : 31,250 кадров/сек (1536 SPF)
Битовая глубина : 16 бит
Метод сжатия : С потерями
Размер потока : 451 Мбайт (5%)
Заголовок : original
Язык : English
ServiceKind/String : Complete Main
Default : Нет
Forced : Нет

Текст #1
Идентификатор : 7
Формат : UTF-8
Идентификатор кодека : S_TEXT/UTF8
Идентификатор кодека/Информация : UTF-8 Plain Text
Продолжительность : 1 ч. 31 м.
Битрейт : 86 бит/сек
ElementCount : 1093
Размер потока : 58,1 Кбайт (0%)
Заголовок : русские
Язык : Russian
Default : Нет
Forced : Нет

Текст #2
Идентификатор : 8
Формат : UTF-8
Идентификатор кодека : S_TEXT/UTF8
Идентификатор кодека/Информация : UTF-8 Plain Text
Продолжительность : 1 ч. 36 м.
Битрейт : 53 бит/сек
ElementCount : 1075
Размер потока : 37,9 Кбайт (0%)
Заголовок : английские
Язык : English
Default : Нет
Forced : Нет

Меню
00:00:00.000 : :Chapter 01
00:03:35.380 : :Chapter 02
00:07:38.290 : :Chapter 03
00:13:18.130 : :Chapter 04
00:17:17.202 : :Chapter 05
00:23:39.416 : :Chapter 06
00:26:58.449 : :Chapter 07
00:32:44.629 : :Chapter 08
00:36:40.364 : :Chapter 09
00:40:25.422 : :Chapter 10
00:45:45.742 : :Chapter 11
00:50:27.858 : :Chapter 12
00:59:24.727 : :Chapter 13
01:03:21.296 : :Chapter 14
01:09:23.993 : :Chapter 15
01:13:14.890 : :Chapter 16
01:15:48.542 : :Chapter 17
01:20:21.483 : :Chapter 18
01:24:50.752 : :Chapter 19
01:28:11.119 : :Chapter 20
01:35:03.531 : :Chapter 21
01:38:33.115 : :Chapter 22
pb.wtf



Скачать Дом у озера через торрент https://d.radikal.ru/d14/1801/08/456f2ca30a4d.jpg Скачать фильм Дом у озера через торрент бесплантно в хорошем качестве О фильме: Кейт Форстер, после расставания с парнем, решает переехать из арендуемого дома, чтобы начать всё с чистого листа, а заодно, быть ... 9.9 10 7
Info! Золотая раздача, скачанное не засчитывается.
Торрент: Зарегистрирован [2018-01-06 07:19] · скачан: 173 раз
Статус: √ проверено
Размер: 9.35 GB
Как cкачать? Как скачать Дом у озера через торрент | qTorrent

% Раздел Тема Автор DL S | L
Фильмы [HD 720p, 1080p] (Хороший звук DUB, MVO) [ 4.75 GB ] Дом у озера / The Lake House [2006 BDRip 720p by msltel] DUB DVO 2 x AVO msltel Скачать
1 | 0

28-11-2019 20:33  

Отключить всю рекламу на сайте

06-01-2018 12:34 Дом у озера Скачать торрент  

классный фильмpb.wtf



06-01-2018 17:53 Дом у озера Скачать торрент  

Маша и Дубровский сношались через дупло )
Кстати фильм неплохой, но на один раз. Баллок и Ривз - лучшая пара Голливуда ИМХОpb.wtf



    Дорогой пользователь! Огромная просьба, поблагодарите релизера, оцените раздачу и оставьте свои комментарий, если Вы скачали Дом у озера через торрент бесплатно! Внесите свою лепту в развитие PiratBit!
    Комментировать посты могут только пользователи прошедшие не сложную регистрацию
    Показать сообщения:    

    Дом у озера через торрент
    Скачать бесплатно Дом у озера
    Дом у озера скачать торрент
    Дом у озера смотреть онлайн
    Cкачать фильм Дом у озера бесплатно
    Дом у озера скачать торрент в хорошем качестве
    Дом у озера смотреть онлайн бесплатно в хорошем качестве


    Вы не можете начинать темы
    Вы не можете отвечать на сообщения
    Вы не можете редактировать свои сообщения
    Вы не можете удалять свои сообщения
    Вы не можете голосовать в опросах
    Вы не можете прикреплять файлы к сообщениям
    Вы можете скачивать файлы