Всегда рабочее зеркало без VPN и Proxy просто перед .vidak.icu напиши любое слово или цифру, Пример http://6c6s.vidak.icu

MVO

2 сезон

1 сезон

1

1 сезон

iTunes

2 сезон

13

1 сезон

Распродажа

pack

Рекомендуем

Пиратка

30

ВАЖНО

RePack

MK11

RePack

jed

RePack

fifa19

RePack

RDR2

RePack

NEED FOR SPEED™ PAYBACK

Кинопоиск HD

6 сезон

 Острые козырьки 6 сезон

Все сериалы

все сериалы на PB.wtf

RePack

FAR CRY 5

Anonymous, нам критически не хватает 5601 руб. на оплату серверов и переферии за Апрель, помоги нам пожалуйста, вся надежда только на тебя. В благодарность мы отключим тебе всю рекламу на сайте!

×
  
Magnet ссылка

Секс у тираннозавров / Tyrannosaurus sex (Габриель Горнелл) [2010 г., Документальный, HDTVRip 720p, Профессиональный (одноголосый)] pb.wtf

Секс у тираннозавров через торрент pb.wtf

Размер: 1.15 GB | Добавлен: 4 года 4 мес. назад | Торрент скачан:24 раза
Смотреть онлайн Секс у тираннозавров | Скачать    Ребята, помогите собрать деньги на оплату серверов!!!

06-01-2018 18:39 Секс у тираннозавров Скачать торрент  

Секс у тираннозавров / Tyrannosaurus sex
Год выпуска: 2010
Страна: США / Locomotive Entertainment Group, Discovery Communications
Жанр: Документальный
Продолжительность: 00:43:53
Перевод: Профессиональный (одноголосый)

Режиссер: Габриель Горнелл

В ролях: Майкл Кэрролл

Описание:

Они господствовали на Земле миллионы лет. По их ископаемым остаткам, отпечаткам мы узнаем как они передвигались и охотились, как они жили и умирали. Но один интимный и загадочный аспект жизни динозавров мы начинаем понимать только сейчас. Один из вопросов на который людям очень интересно получить ответ: как динозавры совокуплялись? При всем множестве зубов и шипов, при их мощи и размерах? Что представляла собой интимная жизнь динозавров? Ученые-палеобиологи с помощью современной компьютерной графики проливают свет на одну из загадок этих огромных существ.




Качество: HDTVRip 720p
Формат: MKV
Видео кодек: AVC/H.264
Аудио кодек: AC3
Видео: AVC/H.264 (1280x720), 3176 Кбит/с, 25.000 кадра/сек
Аудио#1: AC-3, 2 ch,192 kbps (Rus) 48.0 KHz
Аудио#2: AC-3, 2 ch,192 kbps (Eng) 48.0 KHz
Релиз от: студия Кинозал
скриншот  скриншот  скриншот  

Общее
Уникальный идентификатор : 213321326570650701475012682598371481725 (0xA07C316C80E74E438BF8380A976ED87D)
Полное имя : F:\КИНО\Sekc.u.dinozavrov.2010.x264.HDTVRip.mkv
Формат : Matroska
Версия формата : Version 2
Размер файла : 1,15 Гбайт
Продолжительность : 43 м. 53 с.
Общий поток : 3754 Кбит/сек
Дата кодирования : UTC 2010-12-20 20:11:12
Программа кодирования : mkvmerge v3.2.0 ('Beginnings') built on Feb 12 2010 16:46:17
Библиотека кодирования : libebml v0.7.9 + libmatroska v0.8.1

Видео
Идентификатор : 1
Формат : AVC
Формат/Информация : Advanced Video Codec
Профиль формата : High@L3.1
Настройки формата : CABAC / 5 Ref Frames
Параметр CABAC формата : Да
Параметр RefFrames формата : 5 кадров
Идентификатор кодека : V_MPEG4/ISO/AVC
Продолжительность : 43 м. 53 с.
Битрейт : 3176 Кбит/сек
Ширина : 1280 пикселей
Высота : 720 пикселей
Соотношение сторон : 16:9
Режим частоты кадров : Постоянный
Частота кадров : 25,000 кадров/сек
Цветовое пространство : YUV
Субдискретизация насыщенности : 4:2:0
Битовая глубина : 8 бит
Тип развёртки : Прогрессивная
Бит/(Пиксели*Кадры) : 0.138
Размер потока : 974 Мбайт (83%)
Библиотека кодирования : x264 core 107 r1772 c9dad9e
Настройки программы : cabac=1 / ref=5 / deblock=1:0:0 / analyse=0x3:0x133 / me=umh / subme=7 / psy=1 / psy_rd=1.00:0.00 / mixed_ref=1 / me_range=16 / chroma_me=1 / trellis=1 / 8x8dct=1 / cqm=0 / deadzone=21,11 / fast_pskip=0 / chroma_qp_offset=-2 / threads=6 / sliced_threads=0 / nr=0 / decimate=1 / interlaced=0 / constrained_intra=0 / bframes=3 / b_pyramid=2 / b_adapt=1 / b_bias=0 / direct=1 / weightb=1 / open_gop=0 / weightp=2 / keyint=250 / keyint_min=25 / scenecut=40 / intra_refresh=0 / rc_lookahead=40 / rc=2pass / mbtree=1 / bitrate=3176 / ratetol=1.0 / qcomp=0.60 / qpmin=10 / qpmax=51 / qpstep=4 / cplxblur=20.0 / qblur=0.5 / ip_ratio=1.40 / aq=1:1.00
Язык : English
Default : Да
Forced : Нет

Аудио #1
Идентификатор : 2
Формат : AC-3
Формат/Информация : Audio Coding 3
Идентификатор кодека : A_AC3
Продолжительность : 43 м. 53 с.
Вид битрейта : Постоянный
Битрейт : 192 Кбит/сек
Каналы : 2 канала
Расположение каналов : Front: L R
Частота : 48,0 КГц
Частота кадров : 31,250 кадров/сек (1536 SPF)
Битовая глубина : 16 бит
Метод сжатия : С потерями
Размер потока : 60,3 Мбайт (5%)
Заголовок : tirexxx
Язык : Russian
ServiceKind/String : Complete Main
Default : Да
Forced : Да

Аудио #2
Идентификатор : 3
Формат : AC-3
Формат/Информация : Audio Coding 3
Идентификатор кодека : A_AC3
Продолжительность : 43 м. 53 с.
Вид битрейта : Постоянный
Битрейт : 384 Кбит/сек
Каналы : 6 каналов
Расположение каналов : Front: L C R, Side: L R, LFE
Частота : 48,0 КГц
Частота кадров : 31,250 кадров/сек (1536 SPF)
Битовая глубина : 16 бит
Метод сжатия : С потерями
Размер потока : 121 Мбайт (10%)
Заголовок : tyrannosaurus
Язык : English
ServiceKind/String : Complete Main
Default : Нет
Forced : Нет

pb.wtf



Скачать Секс у тираннозавров через торрент http://i3.imageban.ru/out/2017/12/29/cdf371436d634bfcffbdc06abfbd747f.jpg Скачать, смотреть онлайн Секс у тираннозавров бесплантно в хорошем качестве Описание: Они господствовали на Земле миллионы лет. По их ископаемым остаткам, отпечаткам мы узнаем как они передвигались и охотились, как ... 10 10 2
Торрент: Зарегистрирован [2018-01-06 18:39] · скачан: 24 раз
Статус: √ проверено
Размер: 1.15 GB
Как cкачать? Как скачать Секс у тираннозавров через торрент | UTorrent

28-11-2019 20:33  

Отключить всю рекламу на сайте

06-01-2018 19:34 Секс у тираннозавров Скачать торрент  

Што?pb.wtf



06-01-2018 19:55 Секс у тираннозавров Скачать торрент  

ШТА?pb.wtf



06-01-2018 19:56 Секс у тираннозавров Скачать торрент  

Тема сисек не раскрыта? pb.wtf



06-01-2018 21:05 Секс у тираннозавров Скачать торрент  

почему на скринах диплодоки со стегозаврами? Где тиранозавры с большими болтами? pb.wtf



06-01-2018 23:26 Секс у тираннозавров Скачать торрент  

люди фантазерыpb.wtf



    Дорогой пользователь! Огромная просьба, поблагодарите релизера, оцените раздачу и оставьте свои комментарий, если Вы скачали Секс у тираннозавров через торрент бесплатно!
    Комментировать посты могут только пользователи прошедшие не сложную регистрацию
    Показать сообщения:    

    Секс у тираннозавров через торрент
    Скачать бесплатно Секс у тираннозавров
    Секс у тираннозавров скачать торрент
    Секс у тираннозавров смотреть онлайн
    Cкачать фильм Секс у тираннозавров бесплатно
    Секс у тираннозавров скачать торрент в хорошем качестве
    Секс у тираннозавров смотреть онлайн бесплатно в хорошем качестве


    Вы не можете начинать темы
    Вы не можете отвечать на сообщения
    Вы не можете редактировать свои сообщения
    Вы не можете удалять свои сообщения
    Вы не можете голосовать в опросах
    Вы не можете прикреплять файлы к сообщениям
    Вы можете скачивать файлы