Ссылка на приватное зеркало всего за 1$. Внимание количество ограничено!!!

iTunes

iTunes

iTunes

1

iTunes

iTunes

iTunes

iTunes

iTunes

30
pack

$ от Little Big

ВАЖНО

!!Акция!!

Alien_RageХит недели

RePack

Resident Evil 21

ИГРА 18+

pack

RePack

jed

!!Акция!!

Alien_Rage

RePack

fifa19

RePack

Assassins Creed: Odyssey

RePack

NEED FOR SPEED™ PAYBACK

4 сезон

9 сезон

Бесстыжие 9 сезон

Все сериалы

все сериалы на PB.wtf

RePack

FAR CRY 5
  

Мегрэ на Монмартре / Maigret in Montmartre (Тадеус О’Салливан) [2017 г., криминал, детектив, HDTVRip 1080, Любительский (многоголосый) [HDrezka Studio]] pb.wtf

Мегрэ на Монмартре через торрент pb.wtf

Размер: 1.46 GB | Добавлен: 2 года 6 мес. назад | Торрент скачан:232 раза
Скачать  

06-01-2018 19:17 Мегрэ на Монмартре Скачать торрент  

Мегрэ на Монмартре / Maigret in Montmartre

Год выпуска: 2017
Страна: Великобритания
Жанр: драма, криминал, детектив
Продолжительность: 01:33:29
Перевод: Любительский (многоголосый закадровый) [HDrezka Studio]

Режиссер: Тадеус О’Салливан
Сценарий: Стюарт Харкорт, Жорж Сименон
Продюсер: Сюзанн МакОли, Джереми Гуилт, Simon Windsor
Оператор: Дирк Нель
Композитор: Сэмюэл Сим
Художник: Доминик Химэн, Люсинда Райт, Жужа Михалек

В ролях: Роуэн Эткинсон,Марк Хип,Люси Коху,Дуглас Ходж,Себастьян де Соуса,Лоррейн Эшборн,Кэсси Клер,Шон Дингуолл,Лео Стаар,Сара Кестелмен


Описание:Мегрэ исследует случайные убийства графини и шоу-девушки и обнаруживает тёмную тайну, которая связывает их прошлые жизни в Гранд-отеле в Ницце.
rating


Формат: MKV
Видео кодек: AVC
Аудио кодеk: AC3
Видео: 1920x1080 (16:9), 24.000 fps, AVC, 1 997 Kbps
Аудио: Аудио #1: AC3, 192 Kbps, 48.0 KHz, 2 ch
General
Unique ID : 107291981312254856755204007476041862267 (0x50B7AF1803DAF8709AB1F1E4C5EBCC7B)
Complete name : by WSM.mkv
Format : Matroska
Format version : Version 4 / Version 2
File size : 1.46 GiB
Duration : 1h 33mn
Overall bit rate mode : Variable
Overall bit rate : 2 233 Kbps
Encoded date : UTC 2018-01-06 17:17:56
Writing application : Lavf58.2.103
Writing library : Lavf58.2.103
ARTIST : WSM

Video
ID : 1
Format : AVC
Format/Info : Advanced Video Codec
Format profile : Main@L4.0
Format settings, CABAC : Yes
Format settings, ReFrames : 2 frames
Codec ID : V_MPEG4/ISO/AVC
Duration : 1h 33mn
Bit rate mode : Variable
Bit rate : 1 997 Kbps
Maximum bit rate : 5 000 Kbps
Width : 1 920 pixels
Height : 1 080 pixels
Display aspect ratio : 16:9
Frame rate mode : Constant
Frame rate : 24.000 fps
Color space : YUV
Chroma subsampling : 4:2:0
Bit depth : 8 bits
Scan type : Progressive
Bits/(Pixel*Frame) : 0.040
Stream size : 1.30 GiB (89%)
Writing library : Lavc58.8.100 nvenc_h264
Default : Yes
Forced : No
DURATION : 01:33:29.500000000

Audio
ID : 2
Format : AC-3
Format/Info : Audio Coding 3
Mode extension : CM (complete main)
Format settings, Endianness : Big
Codec ID : A_AC3
Duration : 1h 33mn
Bit rate mode : Constant
Bit rate : 192 Kbps
Channel(s) : 2 channels
Channel positions : Front: L R
Sampling rate : 48.0 KHz
Bit depth : 16 bits
Compression mode : Lossy
Delay relative to video : -67ms
Stream size : 128 MiB (9%)
Writing library : Lavc58.8.100 ac3_fixed
Default : Yes
Forced : No
DURATION : 01:33:29.648000000

pb.wtf



Скачать Мегрэ на Монмартре через торрент https://d.radikal.ru/d16/1801/71/4e00a87fadfa.jpg Скачать фильм Мегрэ на Монмартре через торрент бесплантно в хорошем качестве Описание:Мегрэ исследует случайные убийства графини и шоу-девушки и обнаруживает тёмную тайну, которая связывает их прошлые жизни в ... 10 10 8
Торрент: Зарегистрирован [2018-01-06 19:17] · скачан: 232 раз
Статус: T временная
Размер: 1.46 GB
Как cкачать? Как скачать Мегрэ на Монмартре через торрент | qTorrent

% Раздел Тема Автор DL S | L
Фильмы 2017 [DVDrip, WEB-DLRip, HDrip] (DUB, MVO) [ 1.45 GB ] Мегрэ на Монмартре / Maigret in Montmartre [2017 HDRip] [MVO] killermax2013 Скачать
1 | 0
T Фильмы 2017 [DVDrip, WEB-DLRip, HDrip] (DUB, MVO) [ 767 MB ] Мегрэ на Монмартре / Maigret in Montmartre [2017 HDTVRip Любительский [HDrezka Studio]] WorldSM Скачать
1 | 0


Последний раз редактировалось: WorldSM (2018-01-06 23:52), всего редактировалось 1 раз

28-11-2019 20:33  

Отключить всю рекламу на сайте

06-01-2018 20:06 Мегрэ на Монмартре Скачать торрент  

Топик был перенесен из форума Оформление раздач (Кино, Видео и ТВ) в форум Фильмы (WEB-DL 720p, 1080p)


-Lexx-pb.wtf



07-01-2018 16:01 Мегрэ на Монмартре Скачать торрент  

ё-моё, в таком большом файле можно было и оригинальный язык оставитьpb.wtf



08-01-2018 08:47 Мегрэ на Монмартре Скачать торрент  

Мр.Бин в главной роли?И совсем не комедия?Этот фильм обречён pb.wtf



10-01-2018 14:43 Мегрэ на Монмартре Скачать торрент  

Не могу понять, это сериал или нет? Снято как сериал.pb.wtf



    Дорогой пользователь! Огромная просьба, поблагодарите релизера, оцените раздачу и оставьте свои комментарий, если Вы скачали Мегрэ на Монмартре через торрент бесплатно! Внесите свою лепту в развитие PiratBit!
    Комментировать посты могут только пользователи прошедшие не сложную регистрацию
    Показать сообщения:    

    Мегрэ на Монмартре через торрент
    Скачать бесплатно Мегрэ на Монмартре
    Мегрэ на Монмартре скачать торрент
    Мегрэ на Монмартре смотреть онлайн
    Cкачать фильм Мегрэ на Монмартре бесплатно
    Мегрэ на Монмартре скачать торрент в хорошем качестве
    Мегрэ на Монмартре смотреть онлайн бесплатно в хорошем качестве


    Вы не можете начинать темы
    Вы не можете отвечать на сообщения
    Вы не можете редактировать свои сообщения
    Вы не можете удалять свои сообщения
    Вы не можете голосовать в опросах
    Вы не можете прикреплять файлы к сообщениям
    Вы можете скачивать файлы