Ссылка на приватное зеркало всего за 1$. Внимание количество ограничено!!!

OK

1+1

iTunes

мы

OK

1

WEB-DLRip

Джокер

Пифагор

Ведьмак / The Witcher сериал

iTunes

ПШазам

ОК

Оно 2

iTunes

30
pack

Вам бонус

ВАЖНО

!!Акция!!

Alien_RageХит недели

RePack

Resident Evil 21

ИГРА 18+

pack

RePack

jed

RePack

fifa19

RePack

Assassins Creed: Odyssey

RePack

NEED FOR SPEED™ PAYBACK

4 сезон

9 сезон

Бесстыжие 9 сезон

Все сериалы

все сериалы на PB.wtf

RePack

FAR CRY 5
  

Дорога апокалипсиса / Apocalypse Road (Brett Bentman) [2016 г., Триллер, WEB-DLRip, Любительский одноголосый Xixidok] pb.wtf

Дорога апокалипсиса через торрент pb.wtf

Размер: 1.34 GB | Добавлен: 2 года назад | Торрент скачан:198 раз
Скачать  

07-01-2018 04:59 Дорога апокалипсиса Скачать торрент  

Дорога апокалипсиса / Apocalypse Road
Год выпуска: 2016
Страна: США
Жанр: Триллер
Продолжительность: 01:27:46
Перевод: Любительский одноголосый Xixidok
Субтитры: Отсутствуют

Режиссер: Brett Bentman

rating

В ролях: Кэти Кохлер, Эшлин МакИверс, Нелли Скиутто, Лэнс Де Лос Сантос, Билли Блэр, Тони Сензамици, Тодд Дженкинс, Таня Кристиансен, Тиффани Хит, Ben Rigsby Jr.

Описание: События фильма происходят в пост-апокалиптическом мире. Люди, подавленные депрессией, существуют следуя новым неписанным законам, они просто выживают. Две сестры разделены жестоким и безумным миром пробуют найти друг друга. Чтобы встретится, им предстоит преодолеть сложный путь полный опасностей в виде безжалостных банд, вооруженных до зубов маньяков, мародеров и психопатов...

Доп. информация: Есть рекламка.

Качество: WEB-DLRip
Формат: AVI
Видео кодек: XviD
Аудио кодек: AC3
Видео: Xvid, 720Х368, ~1980 Kbps
Аудио#1: AC3, 2 ch, 192 Kbps
скриншот   скриншот   скриншот   скриншот  

General
Complete name : H:\релизы.торрентфайл\Apocalypse.Road.RU.avi
Format : AVI
Format/Info : Audio Video Interleave
File size : 1.34 GiB
Duration : 1h 27mn
Overall bit rate : 2 182 Kbps
Writing application : VirtualDubMod 1.5.10.2 (build 2542/release)
Writing library : VirtualDubMod build 2542/release
Comment : Rip by Basma4i

Video
ID : 0
Format : MPEG-4 Visual
Format profile : Advanced Simple@L5
Format settings, BVOP : No
Format settings, QPel : No
Format settings, GMC : No warppoints
Format settings, Matrix : Default (H.263)
Codec ID : XVID
Codec ID/Hint : XviD
Duration : 1h 27mn
Bit rate : 1 980 Kbps
Width : 720 pixels
Height : 368 pixels
Display aspect ratio : 2.000
Frame rate : 25.000 fps
Color space : YUV
Chroma subsampling : 4:2:0
Bit depth : 8 bits
Scan type : Progressive
Compression mode : Lossy
Bits/(Pixel*Frame) : 0.299
Stream size : 1.21 GiB (91%)
Writing library : XviD 67

Audio
ID : 1
Format : AC-3
Format/Info : Audio Coding 3
Mode extension : CM (complete main)
Format settings, Endianness : Big
Codec ID : 2000
Duration : 1h 27mn
Bit rate mode : Constant
Bit rate : 192 Kbps
Channel(s) : 2 channels
Channel positions : Front: L R
Sampling rate : 48.0 KHz
Bit depth : 16 bits
Compression mode : Lossy
Stream size : 121 MiB (9%)
Alignment : Split accross interleaves
Interleave, duration : 40 ms (1.00 video frame)
Interleave, preload duration : 500 ms

pb.wtf



Скачать Дорога апокалипсиса через торрент http://i99.fastpic.ru/big/2018/0107/db/225bb1021a7ad49acc7ddbbf67bc71db.jpg Скачать фильм Дорога апокалипсиса через торрент бесплантно в хорошем качестве Описание: События фильма происходят в пост-апокалиптическом мире. Люди, подавленные депрессией, существуют следуя новым неписанным законам, ... 7.8 10 5
Торрент: Зарегистрирован [2018-01-07 04:59] · скачан: 198 раз
Статус: T временная
Размер: 1.34 GB
Как cкачать? Как скачать Дорога апокалипсиса через торрент | qTorrent

28-11-2019 20:33  

Отключить всю рекламу на сайте

07-01-2018 07:33 Дорога апокалипсиса Скачать торрент  

Топик был перенесен из форума Фильмы 2017 (Звук TS, Cam, VO, DVO) в форум Фильмы с рекламой (Новинки AVI/MKV)

Причина переноса: Доп. информация: Есть рекламка.
-Lexx-pb.wtf



07-01-2018 09:49 Дорога апокалипсиса Скачать торрент  

давно его чето не было, расслабились pb.wtf



    Дорогой пользователь! Огромная просьба, поблагодарите релизера, оцените раздачу и оставьте свои комментарий, если Вы скачали Дорога апокалипсиса через торрент бесплатно! Внесите свою лепту в развитие PiratBit!
    Комментировать посты могут только пользователи прошедшие не сложную регистрацию
    Показать сообщения:    

    Дорога апокалипсиса через торрент
    Скачать бесплатно Дорога апокалипсиса
    Дорога апокалипсиса скачать торрент
    Дорога апокалипсиса смотреть онлайн
    Cкачать фильм Дорога апокалипсиса бесплатно
    Дорога апокалипсиса скачать торрент в хорошем качестве
    Дорога апокалипсиса смотреть онлайн бесплатно в хорошем качестве


    Вы не можете начинать темы
    Вы не можете отвечать на сообщения
    Вы не можете редактировать свои сообщения
    Вы не можете удалять свои сообщения
    Вы не можете голосовать в опросах
    Вы не можете прикреплять файлы к сообщениям
    Вы можете скачивать файлы