Ссылка на приватное зеркало нашего сайта всего за 1$. Внимание количество ограничено!!!

2 сезон

iTunes

1 сезон

1

2 сезон

2 сезон

iTunes

1 сезон

RePack

30

Ultimate

ВАЖНО

ИГРА 18+

pack

RePack

MK11
pack

Забери бонус

RePack

jed

!!Акция!!

Alien_Rage

RePack

fifa19

RePack

Assassins Creed: Odyssey

RePack

NEED FOR SPEED™ PAYBACK

4 сезон

9 сезон

Бесстыжие 9 сезон

Все сериалы

все сериалы на PB.wtf

RePack

FAR CRY 5
  

Черное зеркало / Black Mirror / Сезон: 4 / Серии: 1-6 из 6 (Оуэн Харрис, Карл Тиббеттс, Отто Баферст) [2017, фантастика, триллер, WEBRip] MVO [NewStudio] pb.wtf

Черное зеркало через торрент pb.wtf

Размер: 4.27 GB | Добавлен: 2 года 10 мес. назад | Торрент скачан:266 раз
Скачать  

07-01-2018 06:05 Черное зеркало Скачать торрент  

Черное зеркало / Black Mirror Информация о фильме:

✦ Название: Черное зеркало
✦ Оригинальное название: Black Mirror
✦ Год выпуска: 2017
✦ Страна: Великобритания / Zeppotron
✦ Жанр: фантастика, триллер, драма
✦ Продолжительность: x ~ 00:59:00
✦ Перевод: Профессиональный многоголосый -
✦ Субтитры: Russian (Forced, отдельно) [2,5 серия]

✦ Режиссер: Оуэн Харрис, Карл Тиббеттс, Отто Баферст

rating

В ролях:

Брайс Даллас Ховард, Элис Ив, Михаэла Коэл, Черри Джонс, Дэйзи Хаггард, Алан Ричсон, Джеймс Нортон и другие и др.

Описание:

Фантастический британский телесериал перенесет зрителя в недалекое будущее, в котором человечество ждет небывалый технологический рост. Новые разработки уже успели полностью изменить наши жизни, плотно засев в окружающую действительность. Сейчас каждый имеет доступ к быстродействующим смартфонам, высококачественным телевизором, производительным компьютерам.
Мы все больше проводим время в соц сетях, предоставляя интернету все больше информации о собственной жизни и окружающих людях. Чужое мнение все больше давит на нас, заставляя следовать за обществом, которое порой может быть очень жестоким. Данный проект призван показать, что ждет людей в будущем и насколько наши жизни изменят современные технологии. Зачастую это оказывается мрачной картиной, в которой мы уже не можем контролировать себя, став марионеткой в руках хакеров, правительства, военных и корпораций. Теперь можно разрушить чью-то жизнь и разбить сердце лишь нажатием на клавиши, больше нет приватности и полной безопасности. Мы всецело отдаемся телевидению и интернету, но порой необходимо остановит этот бурно развивающийся процесс. Иначе произойдет то, что пытаются доказать зрителям создатели этого проекта.

Информация о файле:

✦ Качество: WEBRip
✦ Формат: AVI

✦ Видео: 720x326, 720x388 at 24.000, 25.000 fps, XviD, ~1500 kbps avg
✦ Аудио#1: Russian: 48 kHz, MP3, 2/0 (L,R) ch, ~128 kbps avg |Многоголосый закадровый, NewStudio|
✦ Аудио#2: English: 48 kHz, MP3, 2/0 (L,R) ch, ~128 kbps avg


***Примечание: Без рекламы.

скриншот  
скриншот   скриншот   скриншот   скриншот   скриншот  

Общее
Полное имя : D:\Чёрное зеркало (сезон 4) Black Mirror (2017) WEBRip - NewStudio\Black.Mirror.S04E01.WEBRip.Rus.Eng.DV.NewStudio.avi
Формат : AVI
Формат/Информация : Audio Video Interleave
Размер файла : 963 Мбайт
Продолжительность : 1 ч. 16 м.
Общий поток : 1757 Кбит/сек
Название фильма : Black.Mirror.S04E01.WEBRip.Rus.Eng.DV.NewStudio / NNM-Club
Программа кодирования : VirtualDubModRus 1.5.10.2 (build 2542/release)
Библиотека кодирования : VirtualDubMod build 2542/release

Видео
Идентификатор : 0
Формат : MPEG-4 Visual
Профиль формата : Advanced Simple@L5
Параметр BVOP формата : 2
Параметр QPel формата : Нет
Параметр GMC формата : Без точки перехода
Параметр матрицы формата : Default (H.263)
Идентификатор кодека : XVID
Идентификатор кодека/Подсказка : XviD
Продолжительность : 1 ч. 16 м.
Битрейт : 1486 Кбит/сек
Ширина : 720 пикселей
Высота : 326 пикселей
Соотношение сторон : 2,2:1
Частота кадров : 25,000 кадров/сек
Цветовое пространство : YUV
Субдискретизация насыщенности : 4:2:0
Битовая глубина : 8 бит
Тип развёртки : Прогрессивная
Метод сжатия : С потерями
Бит/(Пиксели*Кадры) : 0.253
Размер потока : 815 Мбайт (85%)
Заголовок : Rip by DriverV / NNM-Club
Библиотека кодирования : XviD 67

Аудио #1
Идентификатор : 1
Формат : MPEG Audio
Версия формата : Version 1
Профиль формата : Layer 3
Режим : Joint stereo
Расширение режима : MS Stereo
Идентификатор кодека : 55
Идентификатор кодека/Подсказка : MP3
Продолжительность : 1 ч. 16 м.
Вид битрейта : Постоянный
Битрейт : 128 Кбит/сек
Каналы : 2 канала
Частота : 48,0 КГц
Метод сжатия : С потерями
Размер потока : 70,2 Мбайт (7%)
Выравнивание : Соединение по промежуткам
Продолжительность промежутка : 40 мс. (1,00 видеокадр)
Время предзагрузки промежутка : 504 мс.

Аудио #2
Идентификатор : 2
Формат : MPEG Audio
Версия формата : Version 1
Профиль формата : Layer 3
Режим : Joint stereo
Расширение режима : MS Stereo
Идентификатор кодека : 55
Идентификатор кодека/Подсказка : MP3
Продолжительность : 1 ч. 16 м.
Вид битрейта : Постоянный
Битрейт : 128 Кбит/сек
Каналы : 2 канала
Частота : 48,0 КГц
Метод сжатия : С потерями
Размер потока : 70,2 Мбайт (7%)
Выравнивание : Соединение по промежуткам
Продолжительность промежутка : 40 мс. (1,00 видеокадр)
Время предзагрузки промежутка : 504 мс.

pb.wtf



Скачать Черное зеркало через торрент http://i99.fastpic.ru/big/2018/0107/3f/ed92b2c2534500e157362a2f3fc8ed3f.png Скачать фильм Черное зеркало через торрент бесплантно в хорошем качестве Описание: Фантастический британский телесериал перенесет зрителя в недалекое будущее, в котором человечество ждет небывалый технологический ... 10 10 7
Торрент: Зарегистрирован [2018-01-07 06:05] · скачан: 266 раз
Статус: √ проверено
Размер: 4.27 GB
Как cкачать? Как скачать Черное зеркало через торрент | qTorrent

% Раздел Тема Автор DL S | L
Зарубежные сериалы [ 27.34 GB ] Черное зеркало / Black Mirror / Сезон: 4 / Серии: 1-6 из 6 [2017 WEBRip 1080p] [DVO] + 2x[MVO] killermax2013 Скачать
1 | 0
Зарубежные сериалы [ 5.21 GB ] Черное зеркало / Black Mirror / Сезон: 4 / Серии: 1-6 из 6 [2017 WEBRip] DVO [Кубик в Кубе] bober100 Скачать
1 | 0
Зарубежные сериалы [ 14.53 GB ] Черное зеркало / Black Mirror / Сезон: 4 / Серии: 1-6 из 6 [2017 WEBRip 720p] DVO [Кубик в Кубе] bober100 Скачать
1 | 0
Зарубежные сериалы [ 25.46 GB ] Черное зеркало / Black Mirror / Сезон: 4 / Серии: 1-6 из 6 [2017 WEBRip 1080p] DVO [Кубик в Кубе] bober100 Скачать
1 | 0
Зарубежные сериалы [ 4.77 GB ] Черное зеркало / Black Mirror / Сезон: 4 / Серии: 1-6 из 6 [2017 WEBRip] [DVO] [Кубик в Кубе] killermax2013 Скачать
1 | 0
Зарубежные сериалы [ 13.02 GB ] Черное зеркало / Black Mirror / 4 сезон / 1-6 серия из 6 [2017 WEB-DL 1080p] [MVO] killermax2013 Скачать
1 | 0
Зарубежные сериалы [ 4.36 GB ] Черное зеркало / Black Mirror / Сезон: 4 / Серии: 1-6 из 6 [2017 WEBRip] MVO [Good People] bober100 Скачать
1 | 0

28-11-2019 20:33  

Отключить всю рекламу на сайте

    Дорогой пользователь! Огромная просьба, поблагодарите релизера, оцените раздачу и оставьте свои комментарий, если Вы скачали Черное зеркало через торрент бесплатно! Внесите свою лепту в развитие PiratBit!
    Комментировать посты могут только пользователи прошедшие не сложную регистрацию
    Показать сообщения:    

    Черное зеркало через торрент
    Скачать бесплатно Черное зеркало
    Черное зеркало скачать торрент
    Черное зеркало смотреть онлайн
    Cкачать фильм Черное зеркало бесплатно
    Черное зеркало скачать торрент в хорошем качестве
    Черное зеркало смотреть онлайн бесплатно в хорошем качестве


    Вы не можете начинать темы
    Вы не можете отвечать на сообщения
    Вы не можете редактировать свои сообщения
    Вы не можете удалять свои сообщения
    Вы не можете голосовать в опросах
    Вы не можете прикреплять файлы к сообщениям
    Вы можете скачивать файлы