2 сезон

iTunes

MVO

1

2 сезон

iTunes

iTunes

1 сезон

RePack

30

Ultimate

ВАЖНО

ИГРА 18+

pack

RePack

MK11
pack

Легкие деньги

RePack

jed

RePack

fifa19

RePack

RDR2

RePack

NEED FOR SPEED™ PAYBACK

4 сезон

9 сезон

Бесстыжие 9 сезон

Все сериалы

все сериалы на PB.wtf

RePack

FAR CRY 5

Anonymous, добрый день, мы не успеваем собрать деньги на оплату серверов за декабрь и январь, помогите нам пожалуйста в это трудное время. В качестве благодарности мы отключим Вам всю рекламу на сайте (укажите свой ник в строку Ваше имя)!

×
  
Magnet ссылка

Борг/Макинрой / Borg McEnroe (Янус Мец) [2017, драма, биография, спорт, WEB-DLRip] Дубляж - [Лицензия / iTunes] pb.wtf

Борг через торрент pb.wtf

Размер: 1.46 GB | Добавлен: 3 года назад | Торрент скачан:546 раз
Скачать  

07-01-2018 13:01 Борг Скачать торрент  

Борг/Макинрой / Borg McEnroe
««Некоторые звезды сияют вечно»»

Год выпуска: 2017
Страна: Швеция, Дания, Финляндия
Жанр: драма, биография, спорт

Продолжительность: 01:47:34
Перевод: Дубляж - [Лицензия / iTunes]
Режиссер: Янус Мец
В ролях:

Сверрир Гуднасон (Björn Borg), Шайа ЛаБаф (John McEnroe), Стеллан Скарсгард (Lennart Bergelin), Тува Новотны (Mariana Simionescu), Лео Борг (Young Björn Borg, age 9-13), Маркус Моссберг (Young Björn Borg, age 15+), Джексон Гэнн (Young John McEnroe), Скотт Артур (Peter Fleming), Йен Блэкман (John McEnroe Senior), Роберт Эммс (Vitas Gerulaitis), Дэвид Бамбер (UK Commentator George Barnes), Матс Бломгрен (Rune Borg)
Описание:
Добро пожаловать в храм тенниса – центральный корт Уимблдона. Здесь в 1980 году разгорелась битва огня и льда, которая изменила мир современного тенниса навсегда. Это идеальное соперничество между игроком у задней линии и отчаянным сеточником. Берн Борг расчетливый и стойкий, как шведская скала. Он первая ракетка мира четырежды завоевавший кубок Уимблдона и нацелен превзойти свой результат. Джон Макинрой - прямая противоположность Боргу, молодая, восходящая звезда тенниса из Америки, обладающая взрывным характером, впервые вышедший в финал Уимблдона. Как оба достигли столь высоких результатов? В этом поможет разобраться биографический фильм. Битва начинается…
Две звезды, один судьбоносный матч и миллионы зрителей.
Рейтинг:

Качество: WEB-DLRip
Формат: AVI
Видео: XviD, 720x304 (2.35:1), 1469 kbps, 24 fps, 0,280 bpp
Аудио: AC3 / 5.1 / 48 kHz / 384 kbps /
General
Complete name : E:\60Pg.M4k1HP0y.2O17.D.WEB-DLRip.14OOMB.avi
Format : AVI
Format/Info : Audio Video Interleave
File size : 1.46 GiB
Duration : 1 h 47 min
Overall bit rate : 1 939 kb/s
Movie name : 60Pg.M4k1HP0y.2O17.D.WEB-DLRip.14OOMB
Writing application : VirtualDubMod 1.5.10.2 (build 2540/release)
Original source form/Name : Movie

Video
ID : 0
Format : MPEG-4 Visual
Format profile : Advanced Simple@L5
Format settings, BVOP : 2
Format settings, QPel : No
Format settings, GMC : No warppoints
Format settings, Matrix : Default (MPEG)
Codec ID : XVID
Codec ID/Hint : XviD
Duration : 1 h 47 min
Bit rate : 1 469 kb/s
Width : 720 pixels
Height : 304 pixels
Display aspect ratio : 2.35:1
Frame rate : 24.000 FPS
Color space : YUV
Chroma subsampling : 4:2:0
Bit depth : 8 bits
Scan type : Progressive
Compression mode : Lossy
Bits/(Pixel*Frame) : 0.280
Stream size : 1.10 GiB (76%)
Writing library : XviD 1.2.1 (UTC 2008-12-04)

Audio
ID : 1
Format : AC-3
Format/Info : Audio Coding 3
Mode extension : CM (complete main)
Format settings, Endianness : Big
Codec ID : 2000
Duration : 1 h 47 min
Bit rate mode : Constant
Bit rate : 384 kb/s
Channel(s) : 6 channels
Channel positions : Front: L C R, Side: L R, LFE
Sampling rate : 48.0 kHz
Frame rate : 31.250 FPS (1536 spf)
Compression mode : Lossy
Stream size : 295 MiB (20%)
Alignment : Split accross interleaves
pb.wtf



Скачать Борг через торрент http://i6.imageban.ru/out/2018/01/07/9fffd14ff8790e13544516b42e7e01dd.jpg Скачать фильм Боргчерез торрент бесплантно в хорошем качестве Описание: Добро пожаловать в храм тенниса – центральный корт Уимблдона. Здесь в 1980 году разгорелась битва огня и льда, которая изменила ... 9.9 10 10
Торрент: Зарегистрирован [2018-01-07 13:01] · скачан: 546 раз
Статус: √ проверено
Размер: 1.46 GB
Как cкачать? Как скачать Борг через торрент | UTorrent

% Раздел Тема Автор DL S | L
Фильмы 2017 [DVDrip, WEB-DLRip, HDrip] (DUB, MVO) [ 1.41 GB ] Борг/Макинрой / Borg McEnroe [2017 биография BDRip] - Twi7ter Скачать
1 | 0
Фильмы [HD 720p, 1080p] (Хороший звук DUB, MVO) [ 8.95 GB ] Борг/Макинрой / Borg McEnroe [2017 биография BDRip 1080p] bober100 Скачать
1 | 0
Фильмы [HD 720p, 1080p] (Хороший звук DUB, MVO) [ 5.19 GB ] Борг/Макинрой / Borg McEnroe [2017 биография BDRip 720p] bober100 Скачать
1 | 0
Фильмы (Blu-ray, BD-Remux, HDDVD) [ 23.75 GB ] Борг/Макинрой / Borg McEnroe [2017 биография BD Remux 1080p] bober100 Скачать
1 | 0
Фильмы (WEB-DL 720p, 1080p) [ 3.72 GB ] Борг/Макинрой / Borg McEnroe [2017 биография WEB-DL 1080p] - -Lexx- Скачать
1 | 0

28-11-2019 20:33  

Отключить всю рекламу на сайте

    Дорогой пользователь! Огромная просьба, поблагодарите релизера, оцените раздачу и оставьте свои комментарий, если Вы скачали Борг через торрент бесплатно! Внесите свою лепту в развитие PiratBit!
    Комментировать посты могут только пользователи прошедшие не сложную регистрацию
    Показать сообщения:    

    Борг через торрент
    Скачать бесплатно Борг
    Борг скачать торрент
    Борг смотреть онлайн
    Cкачать фильм Борг бесплатно
    Борг скачать торрент в хорошем качестве
    Борг смотреть онлайн бесплатно в хорошем качестве


    Вы не можете начинать темы
    Вы не можете отвечать на сообщения
    Вы не можете редактировать свои сообщения
    Вы не можете удалять свои сообщения
    Вы не можете голосовать в опросах
    Вы не можете прикреплять файлы к сообщениям
    Вы можете скачивать файлы