2 сезон

iTunes

MVO

1

2 сезон

iTunes

iTunes

1 сезон

RePack

30

Новинка

ВАЖНО

ИГРА 18+

pack

RePack

MK11
pack

Легкие деньги

RePack

jed

RePack

fifa19

RePack

RDR2

RePack

NEED FOR SPEED™ PAYBACK

4 сезон

9 сезон

Бесстыжие 9 сезон

Все сериалы

все сериалы на PB.wtf

RePack

FAR CRY 5

Anonymous, доброй ночи, мы не успеваем собрать деньги на оплату серверов за декабрь и январь, помогите нам пожалуйста в это трудное время. В качестве благодарности мы отключим Вам всю рекламу на сайте (укажите свой ник в строку Ваше имя)!

×
  
Magnet ссылка

Эксперимент «Офис» 2 / Погром / Mayhem (Джо Линч) [2017, Ужасы, боевик, комедия, BDRip-AVC] MVO [iTunes] - ExKinoRay pb.wtf

Эксперимент «Офис» 2 через торрент pb.wtf

Размер: 1.53 GB | Добавлен: 3 года назад | Торрент скачан:236 раз
Скачать  

07-01-2018 18:29 Эксперимент «Офис» 2 Скачать торрент  

Погром / MayhemГод выпуска: 2017
Страна: США
Жанр: Ужасы, боевик, комедия
Продолжительность: 01:27:34
Перевод: Профессиональный (многоголосый) | iTunes
Субтитры: Английские
Режиссер: Джо Линч

rating

В ролях:

Стивен Юн, Самара Уивинг, Стивен Брэнд, Кэролайн Чикези, Керри Фокс, Даллас Робертс, Марк Фрост, Клер Левин, Андре Эриксен, Никола Кент

Описание:

На человечество обрушился вирус ID7. Заражённые не могут себя контролировать. На 8 часов они оказываются во власти инстинктов: ярости, похоти, страха.
Дерек упорно работал, чтобы добиться высокого положения в крупной фирме. Босс его подставил и уволил с позором. Именно в этот момент в офис попадает вирус ID7. Прекрасный шанс оторваться и восстановить справедливость.

Формат: MKV
Качество: BDRip-AVC
Видео: AVC, 1024x428 (2.40:1), 23.976 fps, 1665 Kbps, 0.158 bit/pixel
Аудио 1: AC-3, 48.0 KHz, 5.1 ch, 384 Kbps, CBR (Russian)
Аудио 2: AC-3, 48.0 KHz, 5.1 ch, 448 Kbps, CBR (ENG)

Без какой-либо рекламы.
General
Unique ID : 244112361288949125506985183683599746635 (0xB7A654A4D526F023B30BEC6CD041464B)
Complete name : D:\Mayhem.2017.MVO.BDRip.AVC.ExKinoRay.mkv
Format : Matroska
Format version : Version 2
File size : 1.53 GiB
Duration : 1 h 27 min
Overall bit rate : 2 499 kb/s
Movie name : Mayhem 2017 from ExKinoRay
Encoded date : UTC 2018-01-15 23:07:47
Writing application : mkvmerge v5.6.0 ('Kenya Kane') built on May 27 2012 16:44:04
Writing library : libebml v1.2.3 + libmatroska v1.3.0

Video
ID : 1
Format : AVC
Format/Info : Advanced Video Codec
Format profile : High@L4.1
Format settings, CABAC : Yes
Format settings, ReFrames : 12 frames
Codec ID : V_MPEG4/ISO/AVC
Duration : 1 h 27 min
Bit rate : 1 665 kb/s
Width : 1 024 pixels
Height : 428 pixels
Display aspect ratio : 2.40:1
Frame rate mode : Constant
Frame rate : 23.976 (23976/1000) FPS
Color space : YUV
Chroma subsampling : 4:2:0
Bit depth : 8 bits
Scan type : Progressive
Bits/(Pixel*Frame) : 0.158
Stream size : 1 013 MiB (65%)
Title : Enigma
Writing library : x264 core 152 r2851 ba24899
Encoding settings : cabac=1 / ref=12 / deblock=1:-2:-2 / analyse=0x3:0x113 / me=umh / subme=10 / psy=1 / psy_rd=1.00:0.05 / mixed_ref=1 / me_range=32 / chroma_me=1 / trellis=2 / 8x8dct=1 / cqm=0 / deadzone=21,11 / fast_pskip=0 / chroma_qp_offset=-3 / threads=12 / lookahead_threads=3 / sliced_threads=0 / nr=0 / decimate=0 / interlaced=0 / bluray_compat=0 / constrained_intra=0 / bframes=10 / b_pyramid=2 / b_adapt=2 / b_bias=0 / direct=3 / weightb=1 / open_gop=0 / weightp=2 / keyint=240 / keyint_min=23 / scenecut=40 / intra_refresh=0 / rc_lookahead=40 / rc=2pass / mbtree=0 / bitrate=1665 / ratetol=1.0 / qcomp=0.60 / qpmin=0 / qpmax=51 / qpstep=4 / cplxblur=20.0 / qblur=0.5 / vbv_maxrate=50000 / vbv_bufsize=62500 / nal_hrd=none / filler=0 / ip_ratio=1.40 / pb_ratio=1.30 / aq=1:0.80
Language : English
Default : Yes
Forced : No
Color range : Limited
Color primaries : BT.709
Transfer characteristics : BT.709
Matrix coefficients : BT.709

Audio #1
ID : 2
Format : AC-3
Format/Info : Audio Coding 3
Mode extension : CM (complete main)
Format settings, Endianness : Big
Codec ID : A_AC3
Duration : 1 h 27 min
Bit rate mode : Constant
Bit rate : 384 kb/s
Channel(s) : 6 channels
Channel positions : Front: L C R, Side: L R, LFE
Sampling rate : 48.0 kHz
Frame rate : 31.250 FPS (1536 spf)
Compression mode : Lossy
Stream size : 241 MiB (15%)
Title : iTunes
Language : Russian
Default : Yes
Forced : No

Audio #2
ID : 3
Format : AC-3
Format/Info : Audio Coding 3
Mode extension : CM (complete main)
Format settings, Endianness : Big
Codec ID : A_AC3
Duration : 1 h 27 min
Bit rate mode : Constant
Bit rate : 448 kb/s
Channel(s) : 6 channels
Channel positions : Front: L C R, Side: L R, LFE
Sampling rate : 48.0 kHz
Frame rate : 31.250 FPS (1536 spf)
Compression mode : Lossy
Stream size : 281 MiB (18%)
Language : English
Default : No
Forced : No

Text
ID : 4
Format : UTF-8
Codec ID : S_TEXT/UTF8
Codec ID/Info : UTF-8 Plain Text
Language : English
Default : No
Forced : No

Menu
00:00:00.000 : en:Chapter 01
00:10:06.188 : en:Chapter 02
00:19:52.566 : en:Chapter 03
00:34:24.896 : en:Chapter 04
00:39:10.056 : en:Chapter 05
00:56:05.278 : en:Chapter 06
01:04:28.573 : en:Chapter 07
01:13:04.838 : en:Chapter 08
01:18:09.601 : en:Chapter 09
01:23:36.428 : en:Chapter 10
Релиз от:

Автор релиза: pb.wtf



Скачать Эксперимент «Офис» 2 через торрент http://i99.fastpic.ru/big/2017/1228/14/c2767bd0a8bcb04050e3feeaae0aaf14.jpg Скачать фильм Эксперимент «Офис» 2 через торрент бесплантно в хорошем качестве Описание: На человечество обрушился вирус ID Заражённые не могут себя контролировать. На 8 часов они оказываются во власти инстинктов: ... 8.5 10 23
Info! Золотая раздача, скачанное не засчитывается.
Торрент: Зарегистрирован [2018-01-16 00:35] · скачан: 236 раз
Статус: √ проверено
Размер: 1.53 GB
Как cкачать? Как скачать Эксперимент «Офис» 2 через торрент | UTorrent



Последний раз редактировалось: Enigma2010 (2018-01-16 00:35), всего редактировалось 2 раз(а)

28-11-2019 20:33  

Отключить всю рекламу на сайте

08-01-2018 11:35 Эксперимент «Офис» 2 Скачать торрент  

прикольный трэшачокpb.wtf



16-01-2018 00:36 Эксперимент «Офис» 2 Скачать торрент  

Замена на iTunes.pb.wtf



    Дорогой пользователь! Огромная просьба, поблагодарите релизера, оцените раздачу и оставьте свои комментарий, если Вы скачали Эксперимент «Офис» 2 через торрент бесплатно! Внесите свою лепту в развитие PiratBit!
    Комментировать посты могут только пользователи прошедшие не сложную регистрацию
    Показать сообщения:    

    Эксперимент «Офис» 2 через торрент
    Скачать бесплатно Эксперимент «Офис» 2
    Эксперимент «Офис» 2 скачать торрент
    Эксперимент «Офис» 2 смотреть онлайн
    Cкачать фильм Эксперимент «Офис» 2 бесплатно
    Эксперимент «Офис» 2 скачать торрент в хорошем качестве
    Эксперимент «Офис» 2 смотреть онлайн бесплатно в хорошем качестве


    Вы не можете начинать темы
    Вы не можете отвечать на сообщения
    Вы не можете редактировать свои сообщения
    Вы не можете удалять свои сообщения
    Вы не можете голосовать в опросах
    Вы не можете прикреплять файлы к сообщениям
    Вы можете скачивать файлы