Ссылка на приватное зеркало нашего сайта всего за 1$. Внимание количество ограничено!!!

2 сезон

iTunes

1 сезон

1

2 сезон

2 сезон

iTunes

1 сезон

RePack

30

Ultimate

ВАЖНО

ИГРА 18+

pack

RePack

MK11
pack

Забери бонус

RePack

jed

!!Акция!!

Alien_Rage

RePack

fifa19

RePack

Assassins Creed: Odyssey

RePack

NEED FOR SPEED™ PAYBACK

4 сезон

9 сезон

Бесстыжие 9 сезон

Все сериалы

все сериалы на PB.wtf

RePack

FAR CRY 5
  

Безжалостное солнце / Hard Sun / Сезон: 1 / Серии 1-6 из 6 (Брайан Кирк, Ник Роулэнд, Ричард Сеньор) [2018, Великобритания, Криминал, драма, научная фантастика, WEBRip 720p] MVO [BaibaKo] pb.wtf

Безжалостное солнце через торрент pb.wtf

Размер: 8.1 GB | Добавлен: 2 года 10 мес. назад | Торрент скачан:34 раза
Скачать  

08-01-2018 01:47 Безжалостное солнце Скачать торрент  


Безжалостное солнце / Hard Sun



  • Год выпуска: 2018
  • Страна: Великобритания
  • Жанр: Криминал, драма, научная фантастика
  • Продолжительность: ~ 00:55:00 (Серия)
  • Перевод: Профессиональный многоголосый [BaibaKo]
  • Режиссер: Брайан Кирк, Ник Роулэнд, Ричард Сеньор
  • В ролях:
    Джим Стёрджесс, Агнесс Дейн, Никки Амука-Бёрд, Дерек Ридделл, Варада Сету, Овайн Артур, Чук Сибтайн, Эдриан Роулин, Лоррэйн Барроуз



  • Современный Лондон. Детективы Хикс и Ренко, партнёры и враги, пытаются поддерживать закон и защищать родных и близких, а на горизонте маячит настоящий конец света. Хикс — продажный офицер полиции и любящий семьянин. Ренко отличается от него почти во всём: одинокая, сложная и абсолютно неподкупная. Но несмотря на все различия, они продолжают работать вместе в ожидании Армагеддона.
  • Рейтинг:

    rating
  • Качество: WEBRip 720p
  • Формат: :MKV
  • Видео кодек: AVC
  • Аудио кодек: AC-3
  • Видео: 4341 Кбит/сек, 1280*720 (16:9), в 25,000 кадров/сек, AVC
  • Аудио №1: русский 640 Кбит/сек, 48,0 КГц, 16 бит, 6 каналов, AC-3 |[BaibaKo]|
  • Аудио №2: английский 640 Кбит/сек, 48,0 КГц, 16 бит, 6 каналов, AC-3
  • Релиз от: GEKADOL

    Внимание! Раздача ведётся путём добавления новых серий; при каждом добавлении создаётся новый торрент. Чтобы начать докачку новой серии, пользователям необходимо сделать следующее:
    (1) остановить скачивание,
    (2) удалить старый торрент у себя из клиента (старые серии удалять не надо),
    (3) скачать новый торрент и запустить его у себя в клиенте вместо старого, при этом указать клиенту путь в старую папку куда и должно происходить скачивание новых серий.
    Ваш клиент при этом должен произвести хеширование (проверку) старой папки (если не производит сам - помогите ему сделать это), и будет докачивать только те серии которых у вас ещё нет. Старые серии при этом не удаляются, а продолжают раздаваться!
    Eсли вы уже удалили старые серии, то предотвратить повторную закачку старых серий можно, отжав галочку в соответствующих местах при запуске нового торрента. По возможности, желательно не удалять старые серии как можно дольше чтобы релизёр не столько продолжал раздавать старые серии, а смог сконцентрироваться на новых.
    Общее
    Уникальный идентификатор : 203937659422778855546698472716306629891 (0x996CF6E9EF3CF33883667E20226A4503)
    Полное имя : F:\Безжалостное солнце (Hard Sun) 720\Hard.Sun.s01e01.HD720p.WEBRip.Rus.Eng.BaibaKo.tv.mkv
    Формат : Matroska
    Версия формата : Version 4 / Version 2
    Размер файла : 2,08 Гбайт
    Продолжительность : 53 м. 0 с.
    Общий поток : 5623 Кбит/сек
    Дата кодирования : UTC 2018-01-08 01:40:39
    Программа кодирования : mkvmerge v19.0.0 ('Brave Captain') 64-bit
    Библиотека кодирования : libebml v1.3.5 + libmatroska v1.4.8
    Writing frontend : StaxRip v1.6.0.0

    Видео
    Идентификатор : 1
    Формат : AVC
    Формат/Информация : Advanced Video Codec
    Профиль формата : High@L3.1
    Настройки формата : CABAC / 3 Ref Frames
    Параметр CABAC формата : Да
    Параметр RefFrames формата : 3 кадра
    Идентификатор кодека : V_MPEG4/ISO/AVC
    Продолжительность : 53 м. 0 с.
    Битрейт : 4341 Кбит/сек
    Ширина : 1280 пикселей
    Высота : 720 пикселей
    Соотношение сторон : 16:9
    Режим частоты кадров : Постоянный
    Частота кадров : 25,000 кадров/сек
    Цветовое пространство : YUV
    Субдискретизация насыщенности : 4:2:0
    Битовая глубина : 8 бит
    Тип развёртки : Прогрессивная
    Бит/(Пиксели*Кадры) : 0.188
    Размер потока : 1,61 Гбайт (77%)
    Default : Да
    Forced : Нет

    Аудио #1
    Идентификатор : 2
    Формат : AC-3
    Формат/Информация : Audio Coding 3
    Идентификатор кодека : A_AC3
    Продолжительность : 53 м. 0 с.
    Вид битрейта : Постоянный
    Битрейт : 640 Кбит/сек
    Каналы : 6 каналов
    Расположение каналов : Front: L C R, Side: L R, LFE
    Частота : 48,0 КГц
    Частота кадров : 31,250 кадров/сек (1536 SPF)
    Битовая глубина : 16 бит
    Метод сжатия : С потерями
    Задержка видео : 16 мс.
    Размер потока : 243 Мбайт (11%)
    Язык : Russian
    ServiceKind/String : Complete Main
    Default : Нет
    Forced : Нет

    Аудио #2
    Идентификатор : 3
    Формат : AC-3
    Формат/Информация : Audio Coding 3
    Идентификатор кодека : A_AC3
    Продолжительность : 53 м. 0 с.
    Вид битрейта : Постоянный
    Битрейт : 640 Кбит/сек
    Каналы : 6 каналов
    Расположение каналов : Front: L C R, Side: L R, LFE
    Частота : 48,0 КГц
    Частота кадров : 31,250 кадров/сек (1536 SPF)
    Битовая глубина : 16 бит
    Метод сжатия : С потерями
    Задержка видео : 16 мс.
    Размер потока : 243 Мбайт (11%)
    Язык : English
    ServiceKind/String : Complete Main
    Default : Нет
    Forced : Нет



    Скриншоты:
    скриншот   скриншот   скриншот   скриншот   скриншот   скриншот   скриншот  
    скриншот  

    Раздача ведётся путём добавления новых серий. Добавлена 3-6 серия (09.01.2018).Просьба перекачать торрент файл.

    pb.wtf



  • Скачать Безжалостное солнце через торрент http://pic1.kartinco.top/images/11/iqxv2.jpg Скачать фильм Безжалостное солнце через торрент бесплантно в хорошем качестве qw.png Современный Лондон. Детективы Хикс и Ренко, партнёры и враги, пытаются поддерживать закон и защищать родных и близких, а на ... 10 10 3
    Info! Золотая раздача, скачанное не засчитывается.
    Торрент: Зарегистрирован [2018-01-09 05:30] · скачан: 34 раз
    Статус: √ проверено
    Размер: 8.1 GB
    Как cкачать? Как скачать Безжалостное солнце через торрент | qTorrent

    % Раздел Тема Автор DL S | L
    Зарубежные сериалы [ 4.1 GB ] Безжалостное солнце / Hard Sun / Сезон: 1 / Серии: 1-6 из 6 [2018 научная WEB-DLRip] MVO [NewStudio] bober100 Скачать
    1 | 0
    Зарубежные сериалы [ 3.98 GB ] Безжалостное солнце / Hard Sun / Сезон: 1 / Серии 1-6 из 6 [2018 научная WEBRip] MVO [BaibaKo] GEKADOL Скачать
    1 | 0
    Зарубежные сериалы [ 2.5 GB ] Безжалостное солнце / Hard Sun / Сезон: 1 / Серии 1 из 6 [2018 научная WEBRip 1080p] MVO [BaibaKo] GEKADOL Скачать
    1 | 0

    28-11-2019 20:33  

    Отключить всю рекламу на сайте

    27-02-2018 09:26 Безжалостное солнце Скачать торрент  

    почему ниодин торрент не раздаётся?????????pb.wtf



      Дорогой пользователь! Огромная просьба, поблагодарите релизера, оцените раздачу и оставьте свои комментарий, если Вы скачали Безжалостное солнце через торрент бесплатно! Внесите свою лепту в развитие PiratBit!
      Комментировать посты могут только пользователи прошедшие не сложную регистрацию
      Показать сообщения:    

      Безжалостное солнце через торрент
      Скачать бесплатно Безжалостное солнце
      Безжалостное солнце скачать торрент
      Безжалостное солнце смотреть онлайн
      Cкачать фильм Безжалостное солнце бесплатно
      Безжалостное солнце скачать торрент в хорошем качестве
      Безжалостное солнце смотреть онлайн бесплатно в хорошем качестве


      Вы не можете начинать темы
      Вы не можете отвечать на сообщения
      Вы не можете редактировать свои сообщения
      Вы не можете удалять свои сообщения
      Вы не можете голосовать в опросах
      Вы не можете прикреплять файлы к сообщениям
      Вы можете скачивать файлы