Мега распродажа FORZA HORIZON 4 ULTIMATE+ВСЕ DLC+ОНЛАЙН всего за 499р. 349 руб. (супер цена). Внимание количество ограничено!!!

iTunes

1+1

iTunes

мы

iTunes

1

1 сезон

Чернобыль

1 сезон

Ральф против интернета

Лицензия

ПШазам

8 сезон

Игра престолов

Лицензия

30
pack

ВАЖНО

!!Акция!!

Alien_RageХит недели

RePack

Resident Evil 21

ИГРА 18+

pack

RePack

Metro:Exodus

!!Акция!!

Alien_Rage

RePack

fifa19

RePack

Assassins Creed: Odyssey

RePack

NEED FOR SPEED™ PAYBACK

3 сезон

9 сезон

Бесстыжие 9 сезон

Все сериалы

все сериалы на PB.wtf

RePack

FAR CRY 5
Ребята, катастрофически не хватает 2730р. для оплаты серверов за ИЮНЬ (всвязи с блокировками трафик упал в 3 раза), 1-2р., выручайте.
  

Жизнь богачей / La vie de château (Жан-Поль Раппно) [1966 г, мелодрама, комедия, BDRip] MVO pb.wtf

Жизнь богачей через торрент pb.wtf

Размер: 1.45 GB | Добавлен: 1 год 6 мес. назад | Торрент скачан:13 раз
Скачать  

08-01-2018 10:47 Жизнь богачей Скачать торрент  

Жизнь богачей / La vie de château
Год выпуска: 1966
Страна: Франция
Жанр: мелодрама, комедия
Продолжительность: 01:32:01
Перевод: Профессиональный (многоголосый)

Режиссер: Жан-Поль Раппно

rating

В ролях: Катрин Денёв, Филипп Нуаре, Пьер Брассёр, Анри Гарсен, Кристиан Барбье, Карлос Томпсон, Мари Марке, Валери Камилль, Марк Дюдикур

Описание: Конец немецкой оккупации. В маленьком французском городке, в особняке, который французы любовно именуют Шато, (замок) скучает очаровательная француженка. Гремят взрывы наступающей армии союзников, а в доме свита устраивает для своей хозяйки праздник. В разгар веселья на территорию Шато сваливается парашютист-освободитель, который тоже не прочь присоединится к гуляющим и прекрасной хозяйке дома…Французы есть французы. Что бы ни происходило в мире, но любовь и красивые женщины важнее всего на свете. Легкая и искристая атмосфера французского кино, обворожительная Катрин Денев и лиричные композиции Мишеля Леграна делают картину изящной, а национальная самоирония в сочетании с режиссерским остроумием оставляют приятные воспоминания.

Качество: BDRip (La vie de chateau.Жизнь богачей.1966.BDRemux.1080p)
Формат: AVI
Видео: XviD, 1858 Кбит/с, 720x432, 24 кадр/с
Аудио #1: AC3, 2 ch, 192 Кбит/с | Русский
Аудио #2: AC3, 1 ch, 192 Кбит/с | Французский
Релиз от: Koenig
скриншот   скриншот   скриншот   скриншот   скриншот   скриншот  

Общее
Полное имя : La.vie.de.chateau.1966.BDRip.avi
Формат : AVI
Формат/Информация : Audio Video Interleave
Размер файла : 1,45 Гбайт
Продолжительность : 1 ч. 32 м.
Общий поток : 2256 Кбит/сек
Программа кодирования : VirtualDubMod 1.5.10.2 (build 2540/release)
Библиотека кодирования : VirtualDubMod build 2540/release

Видео
Идентификатор : 0
Формат : MPEG-4 Visual
Профиль формата : Advanced Simple@L5
Параметр BVOP формата : 1
Параметр QPel формата : Нет
Параметр GMC формата : Без точки перехода
Параметр матрицы формата : Выборочная
Идентификатор кодека : XVID
Идентификатор кодека/Подсказка : XviD
Продолжительность : 1 ч. 32 м.
Битрейт : 1858 Кбит/сек
Ширина : 720 пикселей
Высота : 432 пикселя
Соотношение сторон : 5:3
Частота кадров : 24,000 кадра/сек
Цветовое пространство : YUV
Субдискретизация насыщенности : 4:2:0
Битовая глубина : 8 бит
Тип развёртки : Прогрессивная
Метод сжатия : С потерями
Бит/(Пиксели*Кадры) : 0.249
Размер потока : 1,19 Гбайт (82%)
Библиотека кодирования : XviD 65

Аудио #1
Идентификатор : 1
Формат : AC-3
Формат/Информация : Audio Coding 3
Параметр Endianness формата : Big
Идентификатор кодека : 2000
Продолжительность : 1 ч. 32 м.
Вид битрейта : Постоянный
Битрейт : 192 Кбит/сек
Каналы : 2 канала
Расположение каналов : Front: L R
Частота : 48,0 КГц
Частота кадров : 31,250 кадров/сек (1536 spf)
Битовая глубина : 16 бит
Метод сжатия : С потерями
Размер потока : 126 Мбайт (9%)
Выравнивание : Разделение по промежуткам
Продолжительность промежутка : 42 мс. (1,00 видеокадр)
Время предзагрузки промежутка : 500 мс.
ServiceKind/String : Complete Main

Аудио #2
Идентификатор : 2
Формат : AC-3
Формат/Информация : Audio Coding 3
Параметр Endianness формата : Big
Идентификатор кодека : 2000
Продолжительность : 1 ч. 32 м.
Вид битрейта : Постоянный
Битрейт : 192 Кбит/сек
Каналы : 1 канал
Расположение каналов : Front: C
Частота : 48,0 КГц
Частота кадров : 31,250 кадров/сек (1536 spf)
Битовая глубина : 16 бит
Метод сжатия : С потерями
Размер потока : 126 Мбайт (9%)
Выравнивание : Разделение по промежуткам
Продолжительность промежутка : 42 мс. (1,00 видеокадр)
Время предзагрузки промежутка : 500 мс.
ServiceKind/String : Complete Main

pb.wtf



Скачать Жизнь богачей через торрент http://pic1.kartinco.top/images/11/9x1jx.jpg Скачать фильм Жизнь богачей через торрент бесплантно в хорошем качестве Описание: Конец немецкой оккупации. В маленьком французском городке, в особняке, который французы любовно именуют Шато, (замок) скучает ... 8.7 10 3
Торрент: Зарегистрирован [2018-01-08 10:47] · скачан: 13 раз
Статус: √ проверено
Размер: 1.45 GB
Как cкачать? Как скачать Жизнь богачей через торрент | qTorrent


>> Регистрируемся здесь <<






Отзывы и комментарии о схеме читаем и пишем здесь: ---> Отзывы и комментарии о схеме

Новые благодарочки в телеграм довольных пользователей:
скриншот   скриншот   скриншот   скриншот   скриншот

09-05-2018 08:20 Жизнь богачей Скачать торрент  

Оригинальное название *Жизнь замка* намного лучше отражает содержание. Фильм очень средненький, сюжет изрядно надуман и при этом не продуман, но образы персонажей и их отношения очень реалистичны. Отличная игра артистов, особенно Нуаре, есть по настоящему смешные моменты. Качество рипа очень хорошее, перевод нормальный, РЕКЛАМЫ НЕТ. Спасибо за раздачу.pb.wtf



    Дорогой пользователь! Огромная просьба, поблагодарите релизера, оцените раздачу и оставьте свои комментарий, если Вы скачали Жизнь богачей через торрент бесплатно! Внесите свою лепту в развитие PiratBit!
    Комментировать посты могут только пользователи прошедшие не сложную регистрацию
    Показать сообщения:    

    Жизнь богачей через торрент
    Скачать бесплатно Жизнь богачей
    Жизнь богачей скачать торрент
    Жизнь богачей смотреть онлайн
    Cкачать фильм Жизнь богачей бесплатно
    Жизнь богачей скачать торрент в хорошем качестве
    Жизнь богачей смотреть онлайн бесплатно в хорошем качестве


    Вы не можете начинать темы
    Вы не можете отвечать на сообщения
    Вы не можете редактировать свои сообщения
    Вы не можете удалять свои сообщения
    Вы не можете голосовать в опросах
    Вы не можете прикреплять файлы к сообщениям
    Вы можете скачивать файлы