MEGA SALE -50% FORZA HORIZON 4 ULTIMATE+ВСЕ DLC+ОНЛАЙН всего за 599р. 299 руб. (супер цена). Внимание количество ограничено!!!

iTunes

1+1

iTunes

мы

iTunes

1

iTunes

Чернобыль

iTunes

Ральф против интернета

Лицензия

ПШазам

Лицензия

Игра престолов

Лицензия

30
pack

ВАЖНО

!!Акция!!

Alien_RageХит недели

RePack

Resident Evil 21

ИГРА 18+

pack

RePack

Metro:Exodus

!!Акция!!

Alien_Rage

RePack

fifa19

RePack

Assassins Creed: Odyssey

RePack

NEED FOR SPEED™ PAYBACK

3 сезон

9 сезон

Бесстыжие 9 сезон

Все сериалы

все сериалы на PB.wtf

RePack

FAR CRY 5
Ребята, катастрофически не хватает 7730р. для оплаты серверов за АВГУСТ (всвязи с блокировками трафик упал в 3 раза), 1-2р., выручайте.
  

Короткое время / Short Time (Грегг Чемпион) [1990 г, драма, комедия, криминал, WEB-DLRip] MVO pb.wtf

Короткое время через торрент pb.wtf

Размер: 1.45 GB | Добавлен: 1 год 8 мес. назад | Торрент скачан:26 раз
Скачать  

08-01-2018 15:51 Короткое время Скачать торрент  

Короткое время / Short Time
Год выпуска: 1990
Страна: США, Канада
Жанр: драма, комедия, криминал
Продолжительность: 01:37:05
Перевод: Профессиональный (многоголосый)

Режиссер: Грегг Чемпион

rating

В ролях: Дэбни Коулмэн, Мэтт Фрюэр, Тери Гарр, Бэрри Корбин, Джо Пантолиано, Ксандер Беркли, Роб Рой, Каж-Эрик Эриксен, Тони Пэнтеджис, Сэм Малкин

Описание: Детективу Барту Симпсону до пенсии остается всего ничего. Внезапно у него обнаруживается редкая и смертельная болезнь. Врач говорит, что ему осталось жить недели две, не больше. А тут еще он узнает, что семья получит страховку, только в случае его гибели на службе. Для того, чтобы жена и дети ни в чем не нуждалась после его смерти, он решает стать суперполицейским, берет две ставки и нанимается в патрульные по самым тяжелым районам. Изо всех сил он пытается погибнуть. Но оказывается — это не так уж и просто...

Качество: WEB-DLRip
Формат: AVI
Видео: XviD, 1969 Кбит/с, 720x400, 23.976 кадр/с
Аудио: AC3, 2 ch, 160 Кбит/с
Релиз от: Koenig
скриншот   скриншот   скриншот   скриншот   скриншот   скриншот  

Общее
Полное имя : Short.Time.1990.WEB-DLRip.avi
Формат : AVI
Формат/Информация : Audio Video Interleave
Размер файла : 1,45 Гбайт
Продолжительность : 1 ч. 37 м.
Общий поток : 2138 Кбит/сек
Программа кодирования : VirtualDubMod 1.5.10.2 (build 2540/release)
Библиотека кодирования : VirtualDubMod build 2540/release

Видео
Идентификатор : 0
Формат : MPEG-4 Visual
Профиль формата : Advanced Simple@L5
Параметр BVOP формата : 1
Параметр QPel формата : Нет
Параметр GMC формата : Без точки перехода
Параметр матрицы формата : Выборочная
Идентификатор кодека : XVID
Идентификатор кодека/Подсказка : XviD
Продолжительность : 1 ч. 37 м.
Битрейт : 1969 Кбит/сек
Ширина : 720 пикселей
Высота : 400 пикселей
Соотношение сторон : 16:9
Частота кадров : 23,976 (24000/1001) кадра/сек
Цветовое пространство : YUV
Субдискретизация насыщенности : 4:2:0
Битовая глубина : 8 бит
Тип развёртки : Прогрессивная
Метод сжатия : С потерями
Бит/(Пиксели*Кадры) : 0.285
Размер потока : 1,34 Гбайт (92%)
Библиотека кодирования : XviD 65

Аудио
Идентификатор : 1
Формат : AC-3
Формат/Информация : Audio Coding 3
Параметр Endianness формата : Big
Идентификатор кодека : 2000
Продолжительность : 1 ч. 37 м.
Вид битрейта : Постоянный
Битрейт : 160 Кбит/сек
Каналы : 2 канала
Расположение каналов : Front: L R
Частота : 48,0 КГц
Частота кадров : 31,250 кадров/сек (1536 spf)
Битовая глубина : 16 бит
Метод сжатия : С потерями
Размер потока : 111 Мбайт (7%)
Выравнивание : Разделение по промежуткам
Продолжительность промежутка : 42 мс. (1,00 видеокадр)
Время предзагрузки промежутка : 500 мс.
ServiceKind/String : Complete Main

pb.wtf



Скачать Короткое время через торрент http://pic1.kartinco.top/images/11/ytkzl.jpg Скачать фильм Короткое время через торрент бесплантно в хорошем качестве Описание: Детективу Барту Симпсону до пенсии остается всего ничего. Внезапно у него обнаруживается редкая и смертельная болезнь. Врач ... 8 10 2
Торрент: Зарегистрирован [2018-01-08 15:51] · скачан: 26 раз
Статус: √ проверено
Размер: 1.45 GB
Как cкачать? Как скачать Короткое время через торрент | qTorrent


>> Регистрируемся здесь <<






Отзывы и комментарии о схеме читаем и пишем здесь: ---> Отзывы и комментарии о схеме

Новые благодарочки в телеграм довольных пользователей:
скриншот   скриншот   скриншот   скриншот   скриншот

01-05-2018 07:11 Короткое время Скачать торрент  

Неплохой для своего времени фильм, но сейчас большого впечатления не производит. Общий ненавязчивый назидательный посыл не раздражает. Но не более того. Качество рипа хорошее. РЕКЛАМЫ НЕТ. Спасибо за раздачу.pb.wtf



    Дорогой пользователь! Огромная просьба, поблагодарите релизера, оцените раздачу и оставьте свои комментарий, если Вы скачали Короткое время через торрент бесплатно! Внесите свою лепту в развитие PiratBit!
    Комментировать посты могут только пользователи прошедшие не сложную регистрацию
    Показать сообщения:    

    Короткое время через торрент
    Скачать бесплатно Короткое время
    Короткое время скачать торрент
    Короткое время смотреть онлайн
    Cкачать фильм Короткое время бесплатно
    Короткое время скачать торрент в хорошем качестве
    Короткое время смотреть онлайн бесплатно в хорошем качестве


    Вы не можете начинать темы
    Вы не можете отвечать на сообщения
    Вы не можете редактировать свои сообщения
    Вы не можете удалять свои сообщения
    Вы не можете голосовать в опросах
    Вы не можете прикреплять файлы к сообщениям
    Вы можете скачивать файлы