Ссылка на приватное зеркало нашего сайта всего за 1$. Внимание количество ограничено!!!

2 сезон

iTunes

1 сезон

1

iTunes

iTunes

iTunes

1 сезон

RePack

30

ИГРА 18+

pack

ВАЖНО

!!Акция!!

Alien_RageХит недели

RePack

MK11
pack

Забери бонус

RePack

jed

!!Акция!!

Alien_Rage

RePack

fifa19

RePack

Assassins Creed: Odyssey

RePack

NEED FOR SPEED™ PAYBACK

4 сезон

9 сезон

Бесстыжие 9 сезон

Все сериалы

все сериалы на PB.wtf

RePack

FAR CRY 5
  

Восходящее солнце / Rising Sun (Филип Кауфман) [1993, боевик, драма, криминал, детектив, триллер, BDRip 720p by msltel] MVO, 3 x AVO pb.wtf

Восходящее солнце через торрент pb.wtf

Размер: 7.25 GB | Добавлен: 2 года 9 мес. назад | Торрент скачан:121 раз
Скачать  

09-01-2018 07:41 Восходящее солнце Скачать торрент  

Название: Восходящее солнце
Оригинальное название: Rising Sun
Год выпуска: 1993
Страна: США
Жанр: боевик, драма, криминал, детектив, триллер
Продолжительность: 02:09:25
Перевод: профессиональный многоголосый, авторский

Режиссер: Филип Кауфман
В ролях: Шон Коннери, Уэсли Снайпс, Харви Кейтель, Кэри-Хироюки Тагава, Кевин Андерсон, Мако, Рэй Уайз, Стэн Эги, Стэн Шоу, Тиа Каррере, Стив Бушеми, Татьяна Патиц, Питер Кромби, Сэм Ллойд, Александра Пауэрс, Дэниэл фон Барген, Лоурен Робинсон, Эми Хилл, Том Дальгрен, Клайд Кусацу, Майкл Чэпмен, Джои Миясима, Тамара Тюни, Тони Гэниос, Джеймс Оливер Баллок, Майкл Кинсли, Элинор Клифт, Кларенс Пейдж, Пэт Чоут, Стивен С. Клемонс, Дэн Батлер, Тоширо Обата, Тайлин Джон, Шелли Мишель, Мишель Руис, Патриция Аямэ Томсон

О фильме: Лос-Анджелес. В небоскрёбе японской корпорации "Накамото", имеющей широкие деловые контакты с американской электронной компанией "Микрокон", идет деловой приём, во время которого в главном конференц-зале обнаружен труп молодой женщины. Лейтенант полиции Том Грэм, приехавший на место преступления, не жалует японцев, отсюда и сложности в общении. К расследованию подключаются полицейский Веб Смит и Джо Коннер, специалист по японской культуре. Проверив систему безопасности, они обнаруживают, что кассета, на которой мог быть виден убийца, подменена... Фильм по одноимённому роману Майкла Крайтона (1992).



Качество: BDRip 720p
Формат: MKV
Видео: MPEG-4 AVC, 6029 Кбит/с, 1280x692, 23.976 кадр/с
Аудио 1: русский, AC3, 448 kbps, 6 ch, 48 kHz [профессиональный многоголосый, R5]
Аудио 2: русский, AC3, 192 kbps, 2 ch, 48 kHz [авторский, Леонид Володарский]
Аудио 3: русский, AC3, 448 kbps, 6 ch, 48 kHz [авторский, Андрей Гаврилов]
Аудио 4: русский, AC3, 448 kbps, 6 ch, 48 kHz [авторский, Юрий Живов]
Аудио 5: английский, AC3, 448 kbps, 6 ch, 48 kHz [оригинал]
Субтитры 1: русские
Субтитры 2: английские
Неименованные главы/чаптеры.
Общее
Уникальный идентификатор : 212104212636295452494504417327358889172 (0x9F91C912E740815EBE05E55EFC3F4CD4)
Полное имя : D:\Video\Восходящее солнце.1993.BDRip.720p by msltel.mkv
Формат : Matroska
Версия формата : Version 4 / Version 2
Размер файла : 7,25 Гбайт
Продолжительность : 2 ч. 9 м.
Общий поток : 8016 Кбит/сек
Название фильма : Rip by msltel
Дата кодирования : UTC 2018-01-09 03:26:01
Программа кодирования : mkvmerge v8.2.0 ('World of Adventure') 64bit
Библиотека кодирования : libebml v1.3.1 + libmatroska v1.4.2

Видео
Идентификатор : 1
Формат : AVC
Формат/Информация : Advanced Video Codec
Профиль формата : High@L4.1
Настройки формата : CABAC / 9 Ref Frames
Параметр CABAC формата : Да
Параметр RefFrames формата : 9 кадров
Идентификатор кодека : V_MPEG4/ISO/AVC
Продолжительность : 2 ч. 9 м.
Битрейт : 6029 Кбит/сек
Ширина : 1280 пикселей
Высота : 692 пикселя
Соотношение сторон : 1,85:1
Режим частоты кадров : Постоянный
Частота кадров : 23,976 (24000/1001) кадра/сек
Цветовое пространство : YUV
Субдискретизация насыщенности : 4:2:0
Битовая глубина : 8 бит
Тип развёртки : Прогрессивная
Бит/(Пиксели*Кадры) : 0.284
Размер потока : 5,45 Гбайт (75%)
Библиотека кодирования : x264 core 146 r2538 121396c
Настройки программы : cabac=1 / ref=9 / deblock=1:-3:-2 / analyse=0x3:0x113 / me=umh / subme=11 / psy=1 / psy_rd=1.00:0.15 / mixed_ref=1 / me_range=32 / chroma_me=1 / trellis=2 / 8x8dct=1 / cqm=0 / deadzone=21,11 / fast_pskip=0 / chroma_qp_offset=-3 / threads=6 / lookahead_threads=1 / sliced_threads=0 / nr=0 / decimate=1 / interlaced=0 / bluray_compat=0 / constrained_intra=0 / bframes=11 / b_pyramid=2 / b_adapt=2 / b_bias=0 / direct=1 / weightb=1 / open_gop=0 / weightp=2 / keyint=230 / keyint_min=23 / scenecut=40 / intra_refresh=0 / rc_lookahead=40 / rc=crf / mbtree=0 / crf=19.1 / qcomp=0.60 / qpmin=0 / qpmax=69 / qpstep=4 / vbv_maxrate=62500 / vbv_bufsize=78125 / crf_max=0.0 / nal_hrd=none / filler=0 / ip_ratio=1.40 / pb_ratio=1.30 / aq=1:1.00
Язык : English
Default : Да
Forced : Нет

Аудио #1
Идентификатор : 2
Формат : AC-3
Формат/Информация : Audio Coding 3
Идентификатор кодека : A_AC3
Продолжительность : 2 ч. 9 м.
Вид битрейта : Постоянный
Битрейт : 448 Кбит/сек
Каналы : 6 каналов
Расположение каналов : Front: L C R, Side: L R, LFE
Частота : 48,0 КГц
Частота кадров : 31,250 кадров/сек (1536 SPF)
Битовая глубина : 16 бит
Метод сжатия : С потерями
Размер потока : 415 Мбайт (6%)
Заголовок : MVO.R5
Язык : Russian
ServiceKind/String : Complete Main
Default : Да
Forced : Нет

Аудио #2
Идентификатор : 3
Формат : AC-3
Формат/Информация : Audio Coding 3
Идентификатор кодека : A_AC3
Продолжительность : 2 ч. 9 м.
Вид битрейта : Постоянный
Битрейт : 192 Кбит/сек
Каналы : 2 канала
Расположение каналов : Front: L R
Частота : 48,0 КГц
Частота кадров : 31,250 кадров/сек (1536 SPF)
Битовая глубина : 16 бит
Метод сжатия : С потерями
Размер потока : 178 Мбайт (2%)
Заголовок : Леонид Володарский
Язык : Russian
ServiceKind/String : Complete Main
Default : Нет
Forced : Нет

Аудио #3
Идентификатор : 4
Формат : AC-3
Формат/Информация : Audio Coding 3
Идентификатор кодека : A_AC3
Продолжительность : 2 ч. 9 м.
Вид битрейта : Постоянный
Битрейт : 448 Кбит/сек
Каналы : 6 каналов
Расположение каналов : Front: L C R, Side: L R, LFE
Частота : 48,0 КГц
Частота кадров : 31,250 кадров/сек (1536 SPF)
Битовая глубина : 16 бит
Метод сжатия : С потерями
Размер потока : 415 Мбайт (6%)
Заголовок : Андрей Гаврилов
Язык : Russian
ServiceKind/String : Complete Main
Default : Нет
Forced : Нет

Аудио #4
Идентификатор : 5
Формат : AC-3
Формат/Информация : Audio Coding 3
Идентификатор кодека : A_AC3
Продолжительность : 2 ч. 9 м.
Вид битрейта : Постоянный
Битрейт : 448 Кбит/сек
Каналы : 6 каналов
Расположение каналов : Front: L C R, Side: L R, LFE
Частота : 48,0 КГц
Частота кадров : 31,250 кадров/сек (1536 SPF)
Битовая глубина : 16 бит
Метод сжатия : С потерями
Размер потока : 415 Мбайт (6%)
Заголовок : Юрий Живов
Язык : Russian
ServiceKind/String : Complete Main
Default : Нет
Forced : Нет

Аудио #5
Идентификатор : 6
Формат : AC-3
Формат/Информация : Audio Coding 3
Идентификатор кодека : A_AC3
Продолжительность : 2 ч. 9 м.
Вид битрейта : Постоянный
Битрейт : 448 Кбит/сек
Каналы : 6 каналов
Расположение каналов : Front: L C R, Side: L R, LFE
Частота : 48,0 КГц
Частота кадров : 31,250 кадров/сек (1536 SPF)
Битовая глубина : 16 бит
Метод сжатия : С потерями
Размер потока : 415 Мбайт (6%)
Заголовок : original
Язык : English
ServiceKind/String : Complete Main
Default : Нет
Forced : Нет

Текст #1
Идентификатор : 7
Формат : UTF-8
Идентификатор кодека : S_TEXT/UTF8
Идентификатор кодека/Информация : UTF-8 Plain Text
Продолжительность : 2 ч. 5 м.
Битрейт : 92 бит/сек
ElementCount : 1626
Размер потока : 85,3 Кбайт (0%)
Заголовок : русские
Язык : Russian
Default : Нет
Forced : Нет

Текст #2
Идентификатор : 8
Формат : UTF-8
Идентификатор кодека : S_TEXT/UTF8
Идентификатор кодека/Информация : UTF-8 Plain Text
Продолжительность : 2 ч. 4 м.
Битрейт : 64 бит/сек
ElementCount : 1725
Размер потока : 58,9 Кбайт (0%)
Заголовок : английские
Язык : English
Default : Нет
Forced : Нет

Меню
00:00:00.000 : :Chapter 01
00:03:38.551 : :Chapter 02
00:07:35.453 : :Chapter 03
00:11:46.539 : :Chapter 04
00:14:37.459 : :Chapter 05
00:20:42.657 : :Chapter 06
00:28:36.922 : :Chapter 07
00:35:45.810 : :Chapter 08
00:44:24.661 : :Chapter 09
00:49:17.329 : :Chapter 10
00:55:10.806 : :Chapter 11
01:00:53.357 : :Chapter 12
01:06:52.550 : :Chapter 13
01:12:10.325 : :Chapter 14
01:15:29.733 : :Chapter 15
01:19:04.656 : :Chapter 16
01:22:35.533 : :Chapter 17
01:25:43.388 : :Chapter 18
01:31:25.688 : :Chapter 19
01:35:29.055 : :Chapter 20
01:40:07.793 : :Chapter 21
01:46:27.296 : :Chapter 22
01:50:27.954 : :Chapter 23
01:52:14.352 : :Chapter 24
02:00:03.821 : :Chapter 25
02:05:44.078 : :Chapter 26
02:09:24.756 : :Chapter 27
pb.wtf



Скачать Восходящее солнце через торрент https://c.radikal.ru/c27/1801/3f/94590432a4fd.jpg Скачать фильм Восходящее солнце через торрент бесплантно в хорошем качестве О фильме: Лос-Анджелес. В небоскрёбе японской корпорации "Накамото", имеющей широкие деловые контакты с американской электронной компанией ... 10 10 2
Info! Золотая раздача, скачанное не засчитывается.
Торрент: Зарегистрирован [2018-01-09 07:41] · скачан: 121 раз
Статус: √ проверено
Размер: 7.25 GB
Как cкачать? Как скачать Восходящее солнце через торрент | qTorrent

% Раздел Тема Автор DL S | L
Фильмы [HD 720p, 1080p] (Хороший звук DUB, MVO) [ 18.76 GB ] Восходящее солнце / Rising Sun [1993 BDRip 1080p by msltel] MVO 3 x AVO msltel Скачать
1 | 0

28-11-2019 20:33  

Отключить всю рекламу на сайте

    Дорогой пользователь! Огромная просьба, поблагодарите релизера, оцените раздачу и оставьте свои комментарий, если Вы скачали Восходящее солнце через торрент бесплатно! Внесите свою лепту в развитие PiratBit!
    Комментировать посты могут только пользователи прошедшие не сложную регистрацию
    Показать сообщения:    

    Восходящее солнце через торрент
    Скачать бесплатно Восходящее солнце
    Восходящее солнце скачать торрент
    Восходящее солнце смотреть онлайн
    Cкачать фильм Восходящее солнце бесплатно
    Восходящее солнце скачать торрент в хорошем качестве
    Восходящее солнце смотреть онлайн бесплатно в хорошем качестве


    Вы не можете начинать темы
    Вы не можете отвечать на сообщения
    Вы не можете редактировать свои сообщения
    Вы не можете удалять свои сообщения
    Вы не можете голосовать в опросах
    Вы не можете прикреплять файлы к сообщениям
    Вы можете скачивать файлы