новый адрес
Ссылка на приватное зеркало всего за 1$. Внимание количество ограничено!!!

iTunes

1+1

iTunes

мы

WEB-DL

1

iTunes

Чернобыль

iTunes

Ральф против интернета

Лицензия

ПШазам

Лицензия

Оно 2

Лицензия

30
pack

Вам бонус

ВАЖНО

!!Акция!!

Alien_RageХит недели

RePack

Resident Evil 21

ИГРА 18+

pack

RePack

jed

!!Акция!!

Alien_Rage

RePack

fifa19

RePack

Assassins Creed: Odyssey

RePack

NEED FOR SPEED™ PAYBACK

3 сезон

9 сезон

Бесстыжие 9 сезон

Все сериалы

все сериалы на PB.wtf

RePack

FAR CRY 5
Ребята, катастрофически не хватает 1900р. для оплаты серверов за Октябрь (всвязи с блокировками трафик упал в 3 раза), 1-2р., выручайте.
  

Исправленному верить (Виктор Жилин) [1959, СССР, детектив, DVDRip от AVP Studio] pb.wtf

Исправленному верить через торрент pb.wtf

Размер: 745 MB | Добавлен: 1 год 11 мес. назад | Торрент скачан:21 раз
Скачать  

09-01-2018 10:35 Исправленному верить Скачать торрент  

Исправленному верить
Страна: СССР
Производство: Одесская киностудия

Жанр: детектив
Год выпуска: 1959
Продолжительность: 01:15:44

Перевод: Не требуется
Cубтитры: нет
Оригинальная аудиодорожка: русский

Режиссер: Виктор Жилин

В ролях:
Владимир Гусев, Майя Менглет, Георгий Жжёнов, Григорий Михайлов, Борис Сабуров, Леонид Чиниджанц, Зинаида Сорочинская, Павел Михайлов, Фёдор Радчук, Иван Коваль-Самборский, Ярослав Ефимов, Юрий Горобец, Саша Ерасов, Володя Куликов, Вячеслав Шибаев, Николай Засеев-Руденко, Алексей Бахарь, Владимир Евченко...
Об актёрах подробней

Описание:
Отсидев год за хулиганство в тюрьме, Андрей Коваленко возвращается на судоремонтный завод и начинает честную трудовую жизнь. Но его биография становится приманкой для вора и рецидивиста Греня, много лет орудующего в этих краях. Вскоре друзья и любимая девушка Зоя узнают, что он задержан милицией и подозревается в краже.

Источник: DVD5 R5
Качество видео: DVDRip
Формат видео: AVI

Видео: 688x512 (4:3), 25 fps, XviD ~ 1174 kbps avg, 0.133 bit/pixel
Аудио: 48 kHz, Dolby Digital AC3 2.0, 192 kbps

Раздача от:
Общее
Полное имя : Ispravlennomu.verit.1959.DVDRip_[New-team]_by_AVP_Studio.avi
Формат : AVI
Формат/Информация : Audio Video Interleave
Размер файла : 745 Мбайт
Продолжительность : 1 ч. 15 м.
Общий поток : 1376 Кбит/сек
Программа кодирования : VirtualDubMod 1.5.10.3 | www.virtualdub-fr.org || (build 2550/release)
Библиотека кодирования : VirtualDubMod build 2550/release

Видео
Идентификатор : 0
Формат : MPEG-4 Visual
Профиль формата : Advanced Simple@L5
Настройки формата : BVOP1 / Custom Matrix
Параметр BVOP формата : 1
Параметр QPel формата : Нет
Параметр GMC формата : Без точки перехода
Параметр матрицы формата : Выборочная
Идентификатор кодека : XVID
Идентификатор кодека/Подсказка : XviD
Продолжительность : 1 ч. 15 м.
Битрейт : 1174 Кбит/сек
Ширина : 688 пикселей
Высота : 512 пикселей
Соотношение сторон : 4:3
Частота кадров : 25,000 кадров/сек
Цветовое пространство : YUV
Субдискретизация насыщенности : 4:2:0
Битовая глубина : 8 бит
Тип развёртки : Прогрессивная
Метод сжатия : С потерями
Бит/(Пиксели*Кадры) : 0.133
Размер потока : 636 Мбайт (85%)
Библиотека кодирования : XviD 73

Аудио
Идентификатор : 1
Формат : AC-3
Формат/Информация : Audio Coding 3
Идентификатор кодека : 2000
Продолжительность : 1 ч. 15 м.
Вид битрейта : Постоянный
Битрейт : 192 Кбит/сек
Каналы : 2 канала
Расположение каналов : Front: L R
Частота : 48,0 КГц
Частота кадров : 31,250 кадров/сек (1536 SPF)
Битовая глубина : 16 бит
Метод сжатия : С потерями
Размер потока : 104 Мбайт (14%)
Выравнивание : Разделение по промежуткам
Продолжительность промежутка : 40 мс. (1,00 видеокадр)
Время предзагрузки промежутка : 500 мс
pb.wtf



Скачать Исправленному верить через торрент http://i102.fastpic.ru/big/2018/0109/9a/c96e28e6456ec12108e28608405d409a.png Скачать фильм Исправленному верить через торрент бесплантно в хорошем качестве Описание:Отсидев год за хулиганство в тюрьме, Андрей Коваленко возвращается на судоремонтный завод и начинает честную трудовую жизнь. Но ... 5 10 1
Info! Золотая раздача, скачанное не засчитывается.
Торрент: Зарегистрирован [2018-01-09 10:35] · скачан: 21 раз
Статус: √ проверено
Размер: 745 MB
Как cкачать? Как скачать Исправленному верить через торрент | qTorrent

% Раздел Тема Автор DL S | L
Наши сериалы [ 2.72 GB ] Исправленному верить / Серии: 1-4 из 4 [2018 SATRip] bober100 Скачать
1 | 0
Кино СССР [ 1.09 GB ] Исправленному верить [1959 СССР DVDRip-AVC от AVP Studio] AVP Studio Скачать
1 | 0

28-11-2019 20:33  

Отключить всю рекламу на сайте

    Дорогой пользователь! Огромная просьба, поблагодарите релизера, оцените раздачу и оставьте свои комментарий, если Вы скачали Исправленному верить через торрент бесплатно! Внесите свою лепту в развитие PiratBit!
    Комментировать посты могут только пользователи прошедшие не сложную регистрацию
    Показать сообщения:    

    Исправленному верить через торрент
    Скачать бесплатно Исправленному верить
    Исправленному верить скачать торрент
    Исправленному верить смотреть онлайн
    Cкачать фильм Исправленному верить бесплатно
    Исправленному верить скачать торрент в хорошем качестве
    Исправленному верить смотреть онлайн бесплатно в хорошем качестве


    Вы не можете начинать темы
    Вы не можете отвечать на сообщения
    Вы не можете редактировать свои сообщения
    Вы не можете удалять свои сообщения
    Вы не можете голосовать в опросах
    Вы не можете прикреплять файлы к сообщениям
    Вы можете скачивать файлы