новый адрес пиратбит piratbit
Мега распродажа FORZA HORIZON 4 ULTIMATE+ВСЕ DLC+ОНЛАЙН всего за 499р. 349 руб. (супер цена). Внимание количество ограничено!!!

iTunes

1+1

iTunes

мы

iTunes

1

iTunes

Чернобыль

iTunes

Ральф против интернета

Лицензия

ПШазам

Лицензия

Игра престолов

Лицензия

30
pack

ВАЖНО

!!Акция!!

Alien_RageХит недели

RePack

Resident Evil 21

ИГРА 18+

pack

RePack

Metro:Exodus

!!Акция!!

Alien_Rage

RePack

fifa19

RePack

Assassins Creed: Odyssey

RePack

NEED FOR SPEED™ PAYBACK

3 сезон

9 сезон

Бесстыжие 9 сезон

Все сериалы

все сериалы на PB.wtf

RePack

FAR CRY 5
Ребята, катастрофически не хватает 1900р. для оплаты серверов за Октябрь (всвязи с блокировками трафик упал в 3 раза), 1-2р., выручайте.
  

Спасенное поколение (Юрий Победоносцев) [1959, СССР, военная драма, WEB-DLRip от AVP Studio] pb.wtf

Спасенное поколение через торрент pb.wtf

Размер: 1.09 GB | Добавлен: 1 год 10 мес. назад | Торрент скачан:12 раз
Скачать  

10-01-2018 09:01 Спасенное поколение Скачать торрент  

Спасенное поколение
Страна: СССР
Производство: Киностудия им. Горького

Жанр: военная драма
Год выпуска: 1959
Продолжительность: 01:26:47

Перевод: Не требуется
Cубтитры: нет
Оригинальная аудиодорожка: русский

Режиссер: Юрий Победоносцев

В ролях:
Раиса Куркина, Кира Жаркова, Николай Елизаров, Анастасия Филиппова (Горина), Александр Дегтярь, Вячеслав Шалевич, Евгений Тетерин, Ольга Маркина, Марина Гаврилко, Михаил Трояновский, Алексей Барндык, Борис Токарев, Ольга Великанова, Саша Барабанов, Валерий Зубарев, Вадим Захарченко, Вера Липсток, Борис Кордунов, Зоя Толбузина, Николай Боголюбов, Наталия Селиверстова, Николай Кузьмин, Александр Афанасьев, Николай Гарин...
Об актёрах подробней

Описание:
Антонине Васильевне (Раиса Куркина),как члену бюро райкома партии, поручили спасти ленинградских детей, которых война застигла в пригородных лагерях. Она повезла их в Кировскую область. После двенадцати дней тяжёлого пути дети прибыли в деревню Супрядки.

Исходник: WEB-DL 720p
Качество видео: WEB-DLRip
Формат видео: AVI

Видео: 720x544 (4:3), 25 fps, XviD ~ 1597 kbps avg, 0.163 bit/pixel
Аудио: 48 kHz, Dolby Digital AC3 2.0, 192 kbps

Раздача от:
Общее
Полное имя : Spasennoe.pokolenie.1959.WEB-DLRip_[New-team]_by_AVP_Studio.avi
Формат : AVI
Формат/Информация : Audio Video Interleave
Размер файла : 1,09 Гбайт
Продолжительность : 1 ч. 26 м.
Общий поток : 1799 Кбит/сек
Программа кодирования : VirtualDubMod 1.5.10.3 | www.virtualdub-fr.org || (build 2550/release)
Библиотека кодирования : VirtualDubMod build 2550/release

Видео
Идентификатор : 0
Формат : MPEG-4 Visual
Профиль формата : Advanced Simple@L5
Настройки формата : BVOP1 / Custom Matrix
Параметр BVOP формата : 1
Параметр QPel формата : Нет
Параметр GMC формата : Без точки перехода
Параметр матрицы формата : Выборочная
Идентификатор кодека : XVID
Идентификатор кодека/Подсказка : XviD
Продолжительность : 1 ч. 26 м.
Битрейт : 1597 Кбит/сек
Ширина : 720 пикселей
Высота : 544 пикселя
Соотношение сторон : 4:3
Частота кадров : 25,000 кадров/сек
Цветовое пространство : YUV
Субдискретизация насыщенности : 4:2:0
Битовая глубина : 8 бит
Тип развёртки : Прогрессивная
Метод сжатия : С потерями
Бит/(Пиксели*Кадры) : 0.163
Размер потока : 991 Мбайт (89%)
Библиотека кодирования : XviD 73

Аудио
Идентификатор : 1
Формат : AC-3
Формат/Информация : Audio Coding 3
Идентификатор кодека : 2000
Продолжительность : 1 ч. 26 м.
Вид битрейта : Постоянный
Битрейт : 192 Кбит/сек
Каналы : 2 канала
Расположение каналов : Front: L R
Частота : 48,0 КГц
Частота кадров : 31,250 кадров/сек (1536 SPF)
Битовая глубина : 16 бит
Метод сжатия : С потерями
Размер потока : 119 Мбайт (11%)
Выравнивание : Разделение по промежуткам
Продолжительность промежутка : 40 мс. (1,00 видеокадр)
Время предзагрузки промежутка : 500 мс
pb.wtf



Скачать Спасенное поколение через торрент http://i99.fastpic.ru/big/2018/0110/b3/3ec6e4dfcc77ab37c56b324f078965b3.png Скачать фильм Спасенное поколение через торрент бесплантно в хорошем качестве Описание:Антонине Васильевне (Раиса Куркина),как члену бюро райкома партии, поручили спасти ленинградских детей, которых война застигла в ... 5 10 1
Info! Золотая раздача, скачанное не засчитывается.
Торрент: Зарегистрирован [2018-01-10 09:01] · скачан: 12 раз
Статус: √ проверено
Размер: 1.09 GB
Как cкачать? Как скачать Спасенное поколение через торрент | qTorrent

% Раздел Тема Автор DL S | L
Кино СССР [ 1.09 GB ] Спасенное поколение [1959 СССР военная WEB-DLRip-AVC от AVP Studio] AVP Studio Скачать
1 | 0
Кино СССР [ 746 MB ] Спасенное поколение [1959 СССР военная WEB-DLRip от AVP Studio] AVP Studio Скачать
1 | 0


>> Регистрируемся здесь <<






Отзывы и комментарии о схеме читаем и пишем здесь: ---> Отзывы и комментарии о схеме

Новые благодарочки в телеграм довольных пользователей:
скриншот   скриншот   скриншот   скриншот   скриншот
    Дорогой пользователь! Огромная просьба, поблагодарите релизера, оцените раздачу и оставьте свои комментарий, если Вы скачали Спасенное поколение через торрент бесплатно! Внесите свою лепту в развитие PiratBit!
    Комментировать посты могут только пользователи прошедшие не сложную регистрацию
    Показать сообщения:    

    Спасенное поколение через торрент
    Скачать бесплатно Спасенное поколение
    Спасенное поколение скачать торрент
    Спасенное поколение смотреть онлайн
    Cкачать фильм Спасенное поколение бесплатно
    Спасенное поколение скачать торрент в хорошем качестве
    Спасенное поколение смотреть онлайн бесплатно в хорошем качестве


    Вы не можете начинать темы
    Вы не можете отвечать на сообщения
    Вы не можете редактировать свои сообщения
    Вы не можете удалять свои сообщения
    Вы не можете голосовать в опросах
    Вы не можете прикреплять файлы к сообщениям
    Вы можете скачивать файлы