MEGA SALE -50% FORZA HORIZON 4 ULTIMATE+ВСЕ DLC+ОНЛАЙН всего за 599р. 299 руб. (супер цена). Внимание количество ограничено!!!

iTunes

1+1

iTunes

мы

iTunes

1

iTunes

Чернобыль

iTunes

Ральф против интернета

Лицензия

ПШазам

Лицензия

Игра престолов

Лицензия

30
pack

ВАЖНО

!!Акция!!

Alien_RageХит недели

RePack

Resident Evil 21

ИГРА 18+

pack

RePack

Metro:Exodus

!!Акция!!

Alien_Rage

RePack

fifa19

RePack

Assassins Creed: Odyssey

RePack

NEED FOR SPEED™ PAYBACK

3 сезон

9 сезон

Бесстыжие 9 сезон

Все сериалы

все сериалы на PB.wtf

RePack

FAR CRY 5
Ребята, катастрофически не хватает 7730р. для оплаты серверов за АВГУСТ (всвязи с блокировками трафик упал в 3 раза), 1-2р., выручайте.
  

Прощай, Кристофер Робин / Goodbye Christopher Robin (Саймон Кертис / Simon Curtis) [2017, семейный, биография, история, WEB-DLRip-AVC] [Ukr DUB] [Лицензия / iTunes] pb.wtf

Прощай, Кристофер Робин через торрент pb.wtf

Размер: 1.45 GB | Добавлен: 1 год 8 мес. назад | Торрент скачан:18 раз
Скачать  

10-01-2018 09:30 Прощай, Кристофер Робин Скачать торрент  

Прощай, Кристофер Робин / Прощавай, Крістофер Робін / Goodbye Christopher Robin
Год выпуска: 2017
Страна: Великобритания
Жанр: семейный, биография, история
Продолжительность: 01:47:28
Перевод: Украинский (дублированный) | [Лицензия / iTunes]

Субтитры: нет

Режиссер: Саймон Кертис / Simon Curtis

В ролях: Донал Глисон, Марго Робби, Келли Макдоналд, Вики Пеппердин, Уилл Тилстон, Алекс Лоутер, Стивен Кэмпбелл, Мур, Ричард МакКейб, Джеральдин Сомервилль, Мосси Смит

Описание: Картина расскажет о взаимоотношениях между А. А. Милном и его сыном Кристофером Робином, чьи игрушки вдохновили писателя на создание волшебного мира повестей о Винни-Пухе.



Качество видео: WEB-DLRip-AVC
Формат видео: MKV
Видео: AVC, 1024 х 552, 23.976 fps, ~1547 kbps avg
Аудио: 48 kHz, AC3 Dolby Digital, 2 ch, ~192 kbps - Ukr DUB
Аудио: 48 kHz, AC3 Dolby Digital, 6 ch, ~192 kbps - ENG

Релиз --
скриншот  
General
Unique ID : 252973097879094346776879648290544278717 (0xBE50D8AFD4DA49B3AA71205DEE8BDCBD)
Complete name : F:\Goodbye Christopher Robin (2017) WEB-DLRip-AVC [UKR_ENG] [Hurtom].mkv
Format : Matroska
Format version : Version 4 / Version 2
File size : 1.45 GiB
Duration : 1 h 47 min
Overall bit rate : 1 932 kb/s
Encoded date : UTC 2018-01-05 20:55:07
Writing application : mkvmerge v14.0.0 ('Flow') 64bit
Writing library : libebml v1.3.4 + libmatroska v1.4.5
Cover : Yes
Attachments : cover

Video
ID : 1
Format : AVC
Format/Info : Advanced Video Codec
Format profile : High@L4.1
Format settings : CABAC / 12 Ref Frames
Format settings, CABAC : Yes
Format settings, RefFrames : 12 frames
Codec ID : V_MPEG4/ISO/AVC
Duration : 1 h 47 min
Bit rate : 1 547 kb/s
Width : 1 024 pixels
Height : 552 pixels
Display aspect ratio : 1.85:1
Frame rate mode : Constant
Frame rate : 24.000 FPS
Color space : YUV
Chroma subsampling : 4:2:0
Bit depth : 8 bits
Scan type : Progressive
Bits/(Pixel*Frame) : 0.114
Stream size : 1.13 GiB (78%)
Writing library : x264 core 142 r2431 ac76440
Encoding settings : cabac=1 / ref=12 / deblock=1:-1:-1 / analyse=0x3:0x113 / me=umh / subme=11 / psy=1 / psy_rd=1.00:0.15 / mixed_ref=1 / me_range=32 / chroma_me=1 / trellis=2 / 8x8dct=1 / cqm=0 / deadzone=21,11 / fast_pskip=0 / chroma_qp_offset=-5 / threads=12 / lookahead_threads=2 / sliced_threads=0 / nr=0 / decimate=1 / interlaced=0 / bluray_compat=0 / constrained_intra=0 / bframes=8 / b_pyramid=2 / b_adapt=2 / b_bias=0 / direct=1 / weightb=1 / open_gop=0 / weightp=2 / keyint=240 / keyint_min=23 / scenecut=40 / intra_refresh=0 / rc_lookahead=60 / rc=2pass / mbtree=1 / bitrate=1547 / ratetol=1.0 / qcomp=0.60 / qpmin=10 / qpmax=69 / qpstep=4 / cplxblur=20.0 / qblur=0.5 / vbv_maxrate=50000 / vbv_bufsize=62500 / nal_hrd=none / filler=0 / ip_ratio=1.40 / aq=1:1.00
Language : English
Default : Yes
Forced : No

Audio #1
ID : 2
Format : AC-3
Format/Info : Audio Coding 3
Format settings, Endianness : Big
Codec ID : A_AC3
Duration : 1 h 47 min
Bit rate mode : Constant
Bit rate : 192 kb/s
Channel(s) : 2 channels
Channel positions : Front: L R
Sampling rate : 48.0 kHz
Frame rate : 31.250 FPS (1536 SPF)
Bit depth : 16 bits
Compression mode : Lossy
Stream size : 148 MiB (10%)
Title : AC3 2.0 @ 192 kbps
Language : Ukrainian
Service kind : Complete Main
Default : Yes
Forced : Yes

Audio #2
ID : 3
Format : AC-3
Format/Info : Audio Coding 3
Format settings, Endianness : Big
Codec ID : A_AC3
Duration : 1 h 47 min
Bit rate mode : Constant
Bit rate : 192 kb/s
Channel(s) : 6 channels
Channel positions : Front: L C R, Side: L R, LFE
Sampling rate : 48.0 kHz
Frame rate : 31.250 FPS (1536 SPF)
Bit depth : 16 bits
Compression mode : Lossy
Stream size : 148 MiB (10%)
Title : AC3 2.0 @ 192 kbps
Language : English
Service kind : Complete Main
Default : No
Forced : No

Menu
00:00:00.000 : en:1
00:04:03.952 : en:2
00:07:01.170 : en:3
00:10:32.631 : en:4
00:13:40.527 : en:5
00:16:48.590 : en:6
00:20:43.408 : en:7
00:25:44.792 : en:8
00:30:36.750 : en:9
00:35:25.580 : en:10
00:40:50.738 : en:11
00:48:22.106 : en:12
00:52:32.731 : en:13
00:57:53.593 : en:14
01:03:35.810 : en:15
01:07:38.511 : en:16
01:12:43.858 : en:17
01:18:55.729 : en:18
01:21:45.607 : en:19
01:25:16.651 : en:20
01:29:10.426 : en:21
01:32:27.915 : en:22
01:35:55.914 : en:23
01:41:03.263 : en:24
скриншот  скриншот  скриншот  
pb.wtf



Скачать Прощай, Кристофер Робин через торрент http://i101.fastpic.ru/big/2018/0110/ca/ad2345a7eb6800a8d3ab9239e112f9ca.jpg Скачать фильм Прощай, Кристофер Робин через торрент бесплантно в хорошем качестве Описание: Картина расскажет о взаимоотношениях между А. А. Милном и его сыном Кристофером Робином, чьи игрушки вдохновили писателя на ... 10 10 2
Торрент: Зарегистрирован [2018-01-10 09:30] · скачан: 18 раз
Статус: √ проверено
Размер: 1.45 GB
Как cкачать? Как скачать Прощай, Кристофер Робин через торрент | qTorrent

% Раздел Тема Автор DL S | L
Фильмы 2017 [DVDrip, WEB-DLRip, HDrip] (DUB, MVO) [ 1.46 GB ] Прощай Кристофер Робин / Goodbye Christopher Robin [2017 биография история BDRip] MVO [] Twi7ter Скачать
2 | 0
Фильмы 2017 [DVDrip, WEB-DLRip, HDrip] (DUB, MVO) [ 747 MB ] Прощай Кристофер Робин / Goodbye Christopher Robin [2017 биография история HDRip] MVO [] Loc387 Скачать
1 | 0
Фильмы [HD 720p, 1080p] (Хороший звук DUB, MVO) [ 7.85 GB ] Прощай Кристофер Робин / Goodbye Christopher Robin [2017 биография история BDRip 720p] MVO [] bober100 Скачать
1 | 0
Фильмы [HD 720p, 1080p] (Хороший звук DUB, MVO) [ 13.33 GB ] Прощай Кристофер Робин / Goodbye Christopher Robin [2017 биография история BDRip 1080p] MVO [] bober100 Скачать
1 | 0
Фильмы 2017 [DVDrip, WEB-DLRip, HDrip] (DUB, MVO) [ 1.46 GB ] Прощай Кристофер Робин / Goodbye Christopher Robin [2017 биография история BDRip] MVO [] bober100 Скачать
1 | 0
Фильмы 2017 [DVDrip, WEB-DLRip, HDrip] (DUB, MVO) [ 2.37 GB ] Прощай Кристофер Робин / Goodbye Christopher Robin [2017 биография история BDRip-AVC] MVO [] bober100 Скачать
1 | 0
Фильмы (Blu-ray, BD-Remux, HDDVD) [ 24.66 GB ] Прощай Кристофер Робин / Goodbye Christopher Robin [2017 биография история BD Remux 1080p] MVO bober100 Скачать
1 | 0


>> Регистрируемся здесь <<






Отзывы и комментарии о схеме читаем и пишем здесь: ---> Отзывы и комментарии о схеме

Новые благодарочки в телеграм довольных пользователей:
скриншот   скриншот   скриншот   скриншот   скриншот
    Дорогой пользователь! Огромная просьба, поблагодарите релизера, оцените раздачу и оставьте свои комментарий, если Вы скачали Прощай, Кристофер Робин через торрент бесплатно! Внесите свою лепту в развитие PiratBit!
    Комментировать посты могут только пользователи прошедшие не сложную регистрацию
    Показать сообщения:    

    Прощай, Кристофер Робин через торрент
    Скачать бесплатно Прощай, Кристофер Робин
    Прощай, Кристофер Робин скачать торрент
    Прощай, Кристофер Робин смотреть онлайн
    Cкачать фильм Прощай, Кристофер Робин бесплатно
    Прощай, Кристофер Робин скачать торрент в хорошем качестве
    Прощай, Кристофер Робин смотреть онлайн бесплатно в хорошем качестве


    Вы не можете начинать темы
    Вы не можете отвечать на сообщения
    Вы не можете редактировать свои сообщения
    Вы не можете удалять свои сообщения
    Вы не можете голосовать в опросах
    Вы не можете прикреплять файлы к сообщениям
    Вы можете скачивать файлы