Мега распродажа FORZA HORIZON 4 ULTIMATE+ВСЕ DLC+ОНЛАЙН всего за 499р. 349 руб. (супер цена). Внимание количество ограничено!!!

iTunes

1+1

iTunes

мы

iTunes

1

1 сезон

Чернобыль

1 сезон

Ральф против интернета

Лицензия

ПШазам

8 сезон

Игра престолов

Лицензия

30
pack

ВАЖНО

!!Акция!!

Alien_RageХит недели

RePack

Resident Evil 21

ИГРА 18+

pack

RePack

Metro:Exodus

!!Акция!!

Alien_Rage

RePack

fifa19

RePack

Assassins Creed: Odyssey

RePack

NEED FOR SPEED™ PAYBACK

3 сезон

9 сезон

Бесстыжие 9 сезон

Все сериалы

все сериалы на PB.wtf

RePack

FAR CRY 5
Ребята, катастрофически не хватает 2730р. для оплаты серверов за ИЮНЬ (всвязи с блокировками трафик упал в 3 раза), 1-2р., выручайте.
  

Как убить женушку / Tout doit disparaître (Филипп Муил) [1997 г., Комедия, DVDRip-AVC, Профессиональный (многоголосый)] от ExKinoRay pb.wtf

Как убить женушку через торрент pb.wtf

Размер: 1.15 GB | Добавлен: 1 год 6 мес. назад | Торрент скачан:28 раз
Скачать  

10-01-2018 16:19 Как убить женушку Скачать торрент  

Как убить женушку / Tout doit disparaître
Год выпуска: 1997
Страна: Франция
Жанр: Комедия
Продолжительность: 01:27:31
Перевод: Профессиональный (многоголосый)

Режиссер: Филипп Муил

Премьера в мире: 22 января 1997

rating

В ролях: Дидье Бурдон, Эли Семун, Иоланда Моро, Офелия Винтер, Хосе Гарсия, Режис Лапале, Дидье Бенюро, Люк Пэлан, Андре Даман, Поль Даре

Описание: Робер Миллар женат на занудной, но богатой женщине — Ирэн. Его связь с хорошенькой секретаршей не уходит от внимания стареющей жены: она нанимает частного детектива, чтобы следить за ними. Во время деловой поездки в Ниццу, Робер случайно знакомится с молодым автором детективов Жераром и предлагает ему немалую сумму, чтобы он написал ему книгу на заказ. Единственное условие: использовать лишь ту информацию, которую поставляет заказчик. Обрадованный Жерар берется за работу, не подозревая о том, что содержание его новой книги — план устранения жены заказчика! Но не все в жизни идет по плану…

Качество: DVDRip-AVC
Формат: MKV
Видео кодек: MPEG4
Аудио кодек: AC3
Видео: MPEG-4 AVC, 1500 Кбит/с, 720x428@1024x428, 25 кадров/сек
Аудио#1: Русский (AC3, 2 ch, 192 Кбит/с, 48 КГц)
Аудио#2: Французский (MP2, 2 ch, 192 Кбит/с, 48 КГц)
Релиз от:




raw [info]: 720x428p 64:45 @ 25/1 fps (cfr)
x264 [info]: using SAR=64/45
x264 [info]: using cpu capabilities: MMX2 SSE2Fast LZCNT
x264 [info]: profile High, level 4.1
x264 [info]: frame I:849 Avg QP:14.52 size: 46426
x264 [info]: frame P:28753 Avg QP:17.42 size: 16893
x264 [info]: frame B:101673 Avg QP:19.65 size: 4519
x264 [info]: consecutive B-frames: 1.6% 2.3% 14.7% 13.9% 9.4% 53.8% 2.3% 0.5% 0.5% 0.2% 0.2% 0.1% 0.0% 0.0% 0.0% 0.0% 0.4%
-----
Общее
Уникальный идентификатор : 171193439656734806416493526698807081348 (0x80CAA83C687DAD4E8E006929BDD13984)
Полное имя : D:\ExKinoRay\Kak.Ubit.Zenushku.1997.DVDRip-AVC.ExKinoRay.mkv
Формат : Matroska
Версия формата : Version 2
Размер файла : 1,15 Гбайт
Продолжительность : 1 ч. 27 м.
Общий поток : 1886 Кбит/сек
Дата кодирования : UTC 2018-01-10 13:15:48
Программа кодирования : mkvmerge v7.8.0 ('River Man') 32bit built on Apr 3 2015 12:11:22
Библиотека кодирования : libebml v1.3.1 + libmatroska v1.4.2

Видео
Идентификатор : 1
Формат : AVC
Формат/Информация : Advanced Video Codec
Профиль формата : High@L4.1
Параметр CABAC формата : Да
Параметр ReFrames формата : 14 кадров
Идентификатор кодека : V_MPEG4/ISO/AVC
Продолжительность : 1 ч. 27 м.
Битрейт : 1500 Кбит/сек
Ширина : 720 пикселей
Высота : 428 пикселей
Соотношение сторон : 2,40:1
Режим частоты кадров : Постоянный
Частота кадров : 25,000 кадров/сек
Цветовое пространство : YUV
Субдискретизация насыщенности : 4:2:0
Битовая глубина : 8 бит
Тип развёртки : Прогрессивная
Бит/(Пиксели*Кадры) : 0.195
Размер потока : 917 Мбайт (78%)
Библиотека кодирования : x264 core 148 r2638 7599210
Настройки программы : cabac=1 / ref=14 / deblock=1:-2:-2 / analyse=0x3:0x133 / me=umh / subme=10 / psy=1 / psy_rd=1.05:0.15 / mixed_ref=1 / me_range=32 / chroma_me=1 / trellis=2 / 8x8dct=1 / cqm=0 / deadzone=21,11 / fast_pskip=0 / chroma_qp_offset=-3 / threads=4 / lookahead_threads=1 / sliced_threads=0 / nr=0 / decimate=0 / interlaced=0 / bluray_compat=0 / constrained_intra=0 / bframes=16 / b_pyramid=2 / b_adapt=2 / b_bias=0 / direct=3 / weightb=1 / open_gop=0 / weightp=2 / keyint=250 / keyint_min=25 / scenecut=40 / intra_refresh=0 / rc=2pass / mbtree=0 / bitrate=1500 / ratetol=1.0 / qcomp=0.60 / qpmin=0 / qpmax=69 / qpstep=4 / cplxblur=20.0 / qblur=0.5 / ip_ratio=1.40 / pb_ratio=1.30 / aq=1:1.00
Язык : English
Default : Да
Forced : Нет
Цветовой диапазон : Limited
Основные цвета : BT.601 NTSC
Характеристики трансфера : BT.601
Коэффициенты матрицы : BT.601

Аудио #1
Идентификатор : 2
Формат : AC-3
Формат/Информация : Audio Coding 3
Расширение режима : CM (complete main)
Параметр Endianness формата : Big
Идентификатор кодека : A_AC3
Продолжительность : 1 ч. 27 м.
Вид битрейта : Постоянный
Битрейт : 192 Кбит/сек
Каналы : 2 канала
Расположение каналов : Front: L R
Частота : 48,0 КГц
Частота кадров : 31,250 кадров/сек (1536 spf)
Метод сжатия : С потерями
Размер потока : 120 Мбайт (10%)
Язык : Russian
Default : Да
Forced : Нет

Аудио #2
Идентификатор : 3
Формат : MPEG Audio
Версия формата : Version 1
Профиль формата : Layer 2
Идентификатор кодека : A_MPEG/L2
Идентификатор кодека/Подсказка : MP2
Продолжительность : 1 ч. 27 м.
Вид битрейта : Постоянный
Битрейт : 192 Кбит/сек
Каналы : 2 канала
Частота : 48,0 КГц
Метод сжатия : С потерями
Размер потока : 120 Мбайт (10%)
Язык : French
Default : Нет
Forced : Нет

pb.wtf



Скачать Как убить женушку через торрент http://i58.fastpic.ru/big/2014/0206/ca/cab13c495f1d6aaf152e6e3360c081ca.jpg Скачать фильм Как убить женушку через торрент бесплантно в хорошем качестве Описание: Робер Миллар женат на занудной, но богатой женщине — Ирэн. Его связь с хорошенькой секретаршей не уходит от внимания стареющей ... 10 10 3
Info! Золотая раздача, скачанное не засчитывается.
Торрент: Зарегистрирован [2018-01-10 16:19] · скачан: 28 раз
Статус: √ проверено
Размер: 1.15 GB
Как cкачать? Как скачать Как убить женушку через торрент | qTorrent


>> Регистрируемся здесь <<






Отзывы и комментарии о схеме читаем и пишем здесь: ---> Отзывы и комментарии о схеме

Новые благодарочки в телеграм довольных пользователей:
скриншот   скриншот   скриншот   скриншот   скриншот

10-01-2018 16:25 Как убить женушку Скачать торрент  

Топик был перенесен из форума Оформление раздач (Кино, Видео и ТВ) в форум Фильмы до 2000 г.


schultzpb.wtf



    Дорогой пользователь! Огромная просьба, поблагодарите релизера, оцените раздачу и оставьте свои комментарий, если Вы скачали Как убить женушку через торрент бесплатно! Внесите свою лепту в развитие PiratBit!
    Комментировать посты могут только пользователи прошедшие не сложную регистрацию
    Показать сообщения:    

    Как убить женушку через торрент
    Скачать бесплатно Как убить женушку
    Как убить женушку скачать торрент
    Как убить женушку смотреть онлайн
    Cкачать фильм Как убить женушку бесплатно
    Как убить женушку скачать торрент в хорошем качестве
    Как убить женушку смотреть онлайн бесплатно в хорошем качестве


    Вы не можете начинать темы
    Вы не можете отвечать на сообщения
    Вы не можете редактировать свои сообщения
    Вы не можете удалять свои сообщения
    Вы не можете голосовать в опросах
    Вы не можете прикреплять файлы к сообщениям
    Вы можете скачивать файлы