2 сезон

iTunes

1 сезон

1

iTunes

iTunes

iTunes

1 сезон

RePack

30

ИГРА 18+

pack

ВАЖНО

!!Акция!!

Alien_RageХит недели

RePack

MK11
pack

Забери бонус

RePack

jed

!!Акция!!

Alien_Rage

RePack

fifa19

RePack

Assassins Creed: Odyssey

RePack

NEED FOR SPEED™ PAYBACK

4 сезон

9 сезон

Бесстыжие 9 сезон

Все сериалы

все сериалы на PB.wtf

RePack

FAR CRY 5
  

Искатель воды / The Water Diviner (Расселл Кроу) [2014, драма, военный, BDRip 1080p by msltel] DUB, AVO pb.wtf

Искатель воды через торрент pb.wtf

Размер: 12.53 GB | Добавлен: 2 года 9 мес. назад | Торрент скачан:98 раз
Скачать  

12-01-2018 07:32 Искатель воды Скачать торрент  

Название: Искатель воды
Оригинальное название: The Water Diviner
Год выпуска: 2014
Страна: Австралия, США, Турция
Жанр: драма, военный
Продолжительность: 01:51:26
Перевод: дублированный, авторский

Режиссер: Расселл Кроу
В ролях: Расселл Кроу, Ольга Куриленко, Йылмаз Эрдоган, Джай Кортни, Дилан Георгиадес, Джем Йылмаз, Жаклин МакКензи, Райан Корр, Майкл Дорман, Кристофер Соммерс, Изабель Лукас, Меган Гейл, Дэймон Херриман, Дениз Акдениз, Дэниэл Уилли, Роберт Маммоне, Джеймс Фрайзер, Стив Бастони, Мерт Фират, Эйдан Лайам Смит

О фильме: Действие фильма разворачивается в 1919 году. Это история об австралийце, который отправляется на полуостров Галлиполи, где во время Первой мировой войны проходила ожесточённая битва, чтобы разыскать тела своих погибших сыновей. И неожиданно для себя он обретает надежду там, где и не мыслил её найти...



Качество: BDRip 1080p
Формат: MKV
Видео: MPEG-4 AVC, 12.4 Мбит/с, 1920x804
Аудио 1: русский, AC3, 640 kbps, 6 ch [дублированный]
Аудио 2: русский, DTS, 1509 kbps, 6 ch [авторский, Алексей Матвеев]
Аудио 3: английский, DTS, 1509 kbps, 6 ch, 48 kHz [оригинал]
Субтитры 1: русские
Субтитры 2: английские
Английские хардсабы на неанглийскую речь.
Неименованные главы/чаптеры.
Общее
Уникальный идентификатор : 187939660661364731183406263656679716563 (0x8D63DCAD614BD62E827B2282FCE7B6D3)
Полное имя : D:\Video\Искатель воды.2014.BDRip.1080p by msltel.mkv
Формат : Matroska
Версия формата : Version 4 / Version 2
Размер файла : 12,5 Гбайт
Продолжительность : 1 ч. 51 м.
Общий поток : 16,1 Мбит/сек
Название фильма : Rip by msltel
Дата кодирования : UTC 2018-01-12 05:42:58
Программа кодирования : mkvmerge v8.2.0 ('World of Adventure') 64bit
Библиотека кодирования : libebml v1.3.1 + libmatroska v1.4.2

Видео
Идентификатор : 1
Формат : AVC
Формат/Информация : Advanced Video Codec
Профиль формата : High@L4.1
Настройки формата : CABAC / 4 Ref Frames
Параметр CABAC формата : Да
Параметр RefFrames формата : 4 кадра
Идентификатор кодека : V_MPEG4/ISO/AVC
Продолжительность : 1 ч. 51 м.
Битрейт : 12,4 Мбит/сек
Ширина : 1920 пикселей
Высота : 804 пикселя
Соотношение сторон : 2,40:1
Режим частоты кадров : Постоянный
Частота кадров : 23,976 (24000/1001) кадра/сек
Цветовое пространство : YUV
Субдискретизация насыщенности : 4:2:0
Битовая глубина : 8 бит
Тип развёртки : Прогрессивная
Бит/(Пиксели*Кадры) : 0.336
Размер потока : 9,68 Гбайт (77%)
Библиотека кодирования : x264 core 146 r2538 121396c
Настройки программы : cabac=1 / ref=4 / deblock=1:-3:-2 / analyse=0x3:0x113 / me=umh / subme=11 / psy=1 / psy_rd=1.00:0.15 / mixed_ref=1 / me_range=32 / chroma_me=1 / trellis=2 / 8x8dct=1 / cqm=0 / deadzone=21,11 / fast_pskip=0 / chroma_qp_offset=-3 / threads=6 / lookahead_threads=1 / sliced_threads=0 / nr=0 / decimate=1 / interlaced=0 / bluray_compat=0 / constrained_intra=0 / bframes=9 / b_pyramid=2 / b_adapt=2 / b_bias=0 / direct=1 / weightb=1 / open_gop=0 / weightp=2 / keyint=230 / keyint_min=23 / scenecut=40 / intra_refresh=0 / rc_lookahead=40 / rc=crf / mbtree=0 / crf=18.6 / qcomp=0.60 / qpmin=0 / qpmax=69 / qpstep=4 / vbv_maxrate=62500 / vbv_bufsize=78125 / crf_max=0.0 / nal_hrd=none / filler=0 / ip_ratio=1.40 / pb_ratio=1.30 / aq=1:1.00
Язык : English
Default : Да
Forced : Нет

Аудио #1
Идентификатор : 2
Формат : AC-3
Формат/Информация : Audio Coding 3
Идентификатор кодека : A_AC3
Продолжительность : 1 ч. 51 м.
Вид битрейта : Постоянный
Битрейт : 640 Кбит/сек
Каналы : 6 каналов
Расположение каналов : Front: L C R, Side: L R, LFE
Частота : 48,0 КГц
Частота кадров : 31,250 кадров/сек (1536 SPF)
Битовая глубина : 16 бит
Метод сжатия : С потерями
Размер потока : 510 Мбайт (4%)
Заголовок : DUB
Язык : Russian
ServiceKind/String : Complete Main
Default : Да
Forced : Нет

Аудио #2
Идентификатор : 3
Формат : DTS
Формат/Информация : Digital Theater Systems
Идентификатор кодека : A_DTS
Продолжительность : 1 ч. 51 м.
Вид битрейта : Постоянный
Битрейт : 1509 Кбит/сек
Каналы : 6 каналов
Расположение каналов : Front: L C R, Side: L R, LFE
Частота : 48,0 КГц
Частота кадров : 93,750 кадра/сек (512 SPF)
Битовая глубина : 24 бит
Метод сжатия : С потерями
Размер потока : 1,17 Гбайт (9%)
Заголовок : Алексей Матвеев
Язык : Russian
Default : Нет
Forced : Нет

Аудио #3
Идентификатор : 4
Формат : DTS
Формат/Информация : Digital Theater Systems
Идентификатор кодека : A_DTS
Продолжительность : 1 ч. 51 м.
Вид битрейта : Постоянный
Битрейт : 1509 Кбит/сек
Каналы : 6 каналов
Расположение каналов : Front: L C R, Side: L R, LFE
Частота : 48,0 КГц
Частота кадров : 93,750 кадра/сек (512 SPF)
Битовая глубина : 24 бит
Метод сжатия : С потерями
Размер потока : 1,17 Гбайт (9%)
Заголовок : original
Язык : English
Default : Нет
Forced : Нет

Текст #1
Идентификатор : 5
Формат : UTF-8
Идентификатор кодека : S_TEXT/UTF8
Идентификатор кодека/Информация : UTF-8 Plain Text
Продолжительность : 1 ч. 45 м.
Битрейт : 56 бит/сек
ElementCount : 858
Размер потока : 43,6 Кбайт (0%)
Заголовок : русские
Язык : Russian
Default : Нет
Forced : Нет

Текст #2
Идентификатор : 6
Формат : UTF-8
Идентификатор кодека : S_TEXT/UTF8
Идентификатор кодека/Информация : UTF-8 Plain Text
Продолжительность : 1 ч. 49 м.
Битрейт : 36 бит/сек
ElementCount : 977
Размер потока : 29,2 Кбайт (0%)
Заголовок : английские
Язык : English
Default : Нет
Forced : Нет

Меню
00:00:00.000 : :Chapter 01
00:09:16.806 : :Chapter 02
00:20:44.660 : :Chapter 03
00:29:34.063 : :Chapter 04
00:39:53.430 : :Chapter 05
00:50:50.712 : :Chapter 06
00:59:24.226 : :Chapter 07
01:09:41.969 : :Chapter 08
01:19:26.051 : :Chapter 09
01:30:46.731 : :Chapter 10
01:40:24.435 : :Chapter 11
01:45:50.926 : :Chapter 12
01:51:26.470 : :Chapter 13
pb.wtf



Скачать Искатель воды через торрент https://a.radikal.ru/a05/1801/6d/d538ac1c6507.jpg Скачать фильм Искатель воды через торрент бесплантно в хорошем качестве О фильме: Действие фильма разворачивается в 1919 году. Это история об австралийце, который отправляется на полуостров Галлиполи, где во ... 9.5 10 6
Info! Золотая раздача, скачанное не засчитывается.
Торрент: Зарегистрирован [2018-01-12 07:32] · скачан: 98 раз
Статус: √ проверено
Размер: 12.53 GB
Как cкачать? Как скачать Искатель воды через торрент | qTorrent

% Раздел Тема Автор DL S | L
Фильмы [HD 720p, 1080p] (Хороший звук DUB, MVO) [ 4.47 GB ] Искатель воды / The Water Diviner [2014 военный BDRip 720p by msltel] DUB AVO msltel Скачать
1 | 0

28-11-2019 20:33  

Отключить всю рекламу на сайте

    Дорогой пользователь! Огромная просьба, поблагодарите релизера, оцените раздачу и оставьте свои комментарий, если Вы скачали Искатель воды через торрент бесплатно! Внесите свою лепту в развитие PiratBit!
    Комментировать посты могут только пользователи прошедшие не сложную регистрацию
    Показать сообщения:    

    Искатель воды через торрент
    Скачать бесплатно Искатель воды
    Искатель воды скачать торрент
    Искатель воды смотреть онлайн
    Cкачать фильм Искатель воды бесплатно
    Искатель воды скачать торрент в хорошем качестве
    Искатель воды смотреть онлайн бесплатно в хорошем качестве


    Вы не можете начинать темы
    Вы не можете отвечать на сообщения
    Вы не можете редактировать свои сообщения
    Вы не можете удалять свои сообщения
    Вы не можете голосовать в опросах
    Вы не можете прикреплять файлы к сообщениям
    Вы можете скачивать файлы