новый адрес пиратбит piratbit
Мега распродажа FORZA HORIZON 4 ULTIMATE+ВСЕ DLC+ОНЛАЙН всего за 499р. 349 руб. (супер цена). Внимание количество ограничено!!!

iTunes

1+1

iTunes

мы

iTunes

1

iTunes

Чернобыль

iTunes

Ральф против интернета

Лицензия

ПШазам

Лицензия

Игра престолов

Лицензия

30
pack

ВАЖНО

!!Акция!!

Alien_RageХит недели

RePack

Resident Evil 21

ИГРА 18+

pack

RePack

Metro:Exodus

!!Акция!!

Alien_Rage

RePack

fifa19

RePack

Assassins Creed: Odyssey

RePack

NEED FOR SPEED™ PAYBACK

3 сезон

9 сезон

Бесстыжие 9 сезон

Все сериалы

все сериалы на PB.wtf

RePack

FAR CRY 5
Ребята, катастрофически не хватает 1900р. для оплаты серверов за Октябрь (всвязи с блокировками трафик упал в 3 раза), 1-2р., выручайте.
  

Заре навстречу (Татьяна Лукашевич) [1959, СССР, драма, история, VHSRip от AVP Studio] pb.wtf

Заре навстречу через торрент pb.wtf

Размер: 1.09 GB | Добавлен: 1 год 10 мес. назад | Торрент скачан:16 раз
Скачать  

12-01-2018 09:02 Заре навстречу Скачать торрент  

Заре навстречу
Страна: СССР
Производство: Мосфильм

Жанр: драма, история
Год выпуска: 1959
Продолжительность: 01:33:36

Перевод: Не требуется
Cубтитры: нет
Оригинальная аудиодорожка: русский

Режиссер: Татьяна Лукашевич

В ролях:
Владимир Мазаев, Юрий Яковлев, Татьяна Конюхова, Евгений Самойлов, Ирина Скобцева, Марина Штейнбрехт, Олег Жаков, Афанасий Кочетков, Станислав Чекан, Гарри Дунц, Георгий Черноволенко, Юлия Севела, Иван Кузнецов, Александр Лебедев (II), Пётр Савин, Борис Новиков, Алексей Жильцов, Андрей Тутышкин, Павел Шпрингфельд, Валериан Казанский, Юрий Леонидов, Георгий Георгиу...
Об актёрах подробней

Описание:
Историко-революционный фильм по одноименному роману В. М. Кожевникова.
Время и место действия - Сибирь, 1916-1917 гг. Большевик Пётр Сапожков (Юрий Яковлев) после окончания срока ссылки занимается в небольшом сибирском городке революционной пропагандой и агитацией. Ему помогает жена Варя (Татьяна Конюхова). После февральской революции партия большевиков по-прежнему вне закона, Пётр и Варя скрываются, им грозит арест. Охранке удается захватить их сына Тиму, мальчик попадает в сиротский приют. После Октябрьской революции Сапожков и Варя встречаются с сыном, чтобы больше не расставаться.

Исходник: VHS
Качество видео: VHSRip
Формат видео: AVI

Видео: 688x512 (4:3), 25 fps, XviD ~ 1466 kbps avg, 0.166 bit/pixel
Аудио: 48 kHz, Dolby Digital AC3 2.0, 192 kbps

Раздача от:
Общее
Полное имя : Zare.navstrecu.1959.VHSRip_[New-team]_by_AVP_Studio.avi
Формат : AVI
Формат/Информация : Audio Video Interleave
Размер файла : 1,09 Гбайт
Продолжительность : 1 ч. 33 м.
Общий поток : 1668 Кбит/сек
Программа кодирования : VirtualDubMod 1.5.10.3 | www.virtualdub-fr.org || (build 2550/release)
Библиотека кодирования : VirtualDubMod build 2550/release

Видео
Идентификатор : 0
Формат : MPEG-4 Visual
Профиль формата : Advanced Simple@L5
Настройки формата : BVOP1 / Custom Matrix
Параметр BVOP формата : 1
Параметр QPel формата : Нет
Параметр GMC формата : Без точки перехода
Параметр матрицы формата : Выборочная
Идентификатор кодека : XVID
Идентификатор кодека/Подсказка : XviD
Продолжительность : 1 ч. 33 м.
Битрейт : 1466 Кбит/сек
Ширина : 688 пикселей
Высота : 512 пикселей
Соотношение сторон : 4:3
Частота кадров : 25,000 кадров/сек
Цветовое пространство : YUV
Субдискретизация насыщенности : 4:2:0
Битовая глубина : 8 бит
Тип развёртки : Прогрессивная
Метод сжатия : С потерями
Бит/(Пиксели*Кадры) : 0.166
Размер потока : 981 Мбайт (88%)
Библиотека кодирования : XviD 73

Аудио
Идентификатор : 1
Формат : AC-3
Формат/Информация : Audio Coding 3
Идентификатор кодека : 2000
Продолжительность : 1 ч. 33 м.
Вид битрейта : Постоянный
Битрейт : 192 Кбит/сек
Каналы : 2 канала
Расположение каналов : Front: L R
Частота : 48,0 КГц
Частота кадров : 31,250 кадров/сек (1536 SPF)
Битовая глубина : 16 бит
Метод сжатия : С потерями
Размер потока : 129 Мбайт (12%)
Выравнивание : Разделение по промежуткам
Продолжительность промежутка : 40 мс. (1,00 видеокадр)
Время предзагрузки промежутка : 500 мс
pb.wtf



Скачать Заре навстречу через торрент http://i103.fastpic.ru/big/2018/0112/96/fb34759dc2166bf7e7461baa7a7a6696.png Скачать фильм Заре навстречу через торрент бесплантно в хорошем качестве Описание:Историко-революционный фильм по одноименному роману В. М. Кожевникова.Время и место действия - Сибирь, 1916-1917 гг. Большевик ... 5 10 1
Info! Золотая раздача, скачанное не засчитывается.
Торрент: Зарегистрирован [2018-01-12 09:02] · скачан: 16 раз
Статус: √ проверено
Размер: 1.09 GB
Как cкачать? Как скачать Заре навстречу через торрент | qTorrent

% Раздел Тема Автор DL S | L
Кино СССР [ 1.09 GB ] Заре навстречу [1959 СССР история VHSRip-AVC от AVP Studio] AVP Studio Скачать
1 | 0
Кино СССР [ 748 MB ] Заре навстречу [1959 СССР история VHSRip от AVP Studio] AVP Studio Скачать
1 | 0


>> Регистрируемся здесь <<






Отзывы и комментарии о схеме читаем и пишем здесь: ---> Отзывы и комментарии о схеме

Новые благодарочки в телеграм довольных пользователей:
скриншот   скриншот   скриншот   скриншот   скриншот
    Дорогой пользователь! Огромная просьба, поблагодарите релизера, оцените раздачу и оставьте свои комментарий, если Вы скачали Заре навстречу через торрент бесплатно! Внесите свою лепту в развитие PiratBit!
    Комментировать посты могут только пользователи прошедшие не сложную регистрацию
    Показать сообщения:    

    Заре навстречу через торрент
    Скачать бесплатно Заре навстречу
    Заре навстречу скачать торрент
    Заре навстречу смотреть онлайн
    Cкачать фильм Заре навстречу бесплатно
    Заре навстречу скачать торрент в хорошем качестве
    Заре навстречу смотреть онлайн бесплатно в хорошем качестве


    Вы не можете начинать темы
    Вы не можете отвечать на сообщения
    Вы не можете редактировать свои сообщения
    Вы не можете удалять свои сообщения
    Вы не можете голосовать в опросах
    Вы не можете прикреплять файлы к сообщениям
    Вы можете скачивать файлы