MEGA NEWS Получи личный уникальный адрес сайта и защити себя от блокировок. Внимание количество ограничено!!!

iTunes

1+1

iTunes

мы

iTunes

1

iTunes

Чернобыль

iTunes

Ральф против интернета

Лицензия

ПШазам

Лицензия

Игра престолов

Лицензия

30
pack

ВАЖНО

!!Акция!!

Alien_RageХит недели

RePack

Resident Evil 21

ИГРА 18+

pack

RePack

Metro:Exodus

!!Акция!!

Alien_Rage

RePack

fifa19

RePack

Assassins Creed: Odyssey

RePack

NEED FOR SPEED™ PAYBACK

3 сезон

9 сезон

Бесстыжие 9 сезон

Все сериалы

все сериалы на PB.wtf

RePack

FAR CRY 5
Ребята, катастрофически не хватает 1900р. для оплаты серверов за АВГУСТ (всвязи с блокировками трафик упал в 3 раза), 1-2р., выручайте.
  

Фарфоровая луна / China Moon (Джон Бэйли) [1991 г, триллер, мелодрама, криминал, детектив, BDRip] DVO pb.wtf

Фарфоровая луна через торрент pb.wtf

Размер: 1.45 GB | Добавлен: 1 год 9 мес. назад | Торрент скачан:12 раз
Скачать  

12-01-2018 18:15 Фарфоровая луна Скачать торрент  

Фарфоровая луна / China Moon
Год выпуска: 1991
Страна: США
Жанр: триллер, мелодрама, криминал, детектив
Продолжительность: 01:39:56
Перевод: Профессиональный двухголосый (НТВ+)

Режиссер: Джон Бэйли

rating

В ролях: Эд Харрис, Мэдлин Стоу, Чарльз Дэнс, Патриция Хили, Бенисио Дель Торо, Тим Пауэлл, Прюитт Тейлор Винс, Ларри Шулер, Роб Эдвард Моррис, Пол Дэрби, Тереза Бин, Аллен Принц, Сэм Майерс, Энсон Фундербург, Мэтт МакКейб, Джим Милан, Дэнни Кохрэн, Грегори Авеллон, Сэнди Мартин, Джозеф Е. Лауден, Дженис Бенсон

Описание: Нет ни одного преступления, которое бы не расследовал Кайл Бодин. Он внимателен к деталям и уверен: нет преступников, которые не ошибаются. Все идет просто отлично — все преступления с блеском раскрываются в компании с напарником Дики Ламарком… Пока Кайл случайно не знакомится в баре с обворожительной Рейчел, которая несчастлива в браке и планирует убийство супруга. Сумасшедшие чувства приводят к тому, что детектив становится невольным соучастником страшного преступления. И, кажется, его напарник о чем-то догадывается…

Качество: BDRip (China.Moon.1991.BDRemux.1080p)
Формат: AVI
Видео: XviD, 1680 Кбит/с, 720x304, 23.976 кадр/c
Аудио #1: AC3, 2 ch, 192 Кбит/с | Русский
Аудио #2: AC3, 2 ch, 192 Кбит/с | Английский
Релиз от: Koenig
скриншот   скриншот   скриншот   скриншот   скриншот   скриншот  

Общее
Полное имя : China.Moon.1991.BDRip.avi
Формат : AVI
Формат/Информация : Audio Video Interleave
Размер файла : 1,45 Гбайт
Продолжительность : 1 ч. 39 м.
Общий поток : 2078 Кбит/сек
Программа кодирования : VirtualDubMod 1.5.10.2 (build 2540/release)
Библиотека кодирования : VirtualDubMod build 2540/release

Видео
Идентификатор : 0
Формат : MPEG-4 Visual
Профиль формата : Advanced Simple@L5
Параметр BVOP формата : 1
Параметр QPel формата : Нет
Параметр GMC формата : Без точки перехода
Параметр матрицы формата : Выборочная
Идентификатор кодека : XVID
Идентификатор кодека/Подсказка : XviD
Продолжительность : 1 ч. 39 м.
Битрейт : 1680 Кбит/сек
Ширина : 720 пикселей
Высота : 304 пикселя
Соотношение сторон : 2,35:1
Частота кадров : 23,976 (24000/1001) кадра/сек
Цветовое пространство : YUV
Субдискретизация насыщенности : 4:2:0
Битовая глубина : 8 бит
Тип развёртки : Прогрессивная
Метод сжатия : С потерями
Бит/(Пиксели*Кадры) : 0.320
Размер потока : 1,17 Гбайт (81%)
Библиотека кодирования : XviD 65

Аудио #1
Идентификатор : 1
Формат : AC-3
Формат/Информация : Audio Coding 3
Параметр Endianness формата : Big
Идентификатор кодека : 2000
Продолжительность : 1 ч. 39 м.
Вид битрейта : Постоянный
Битрейт : 192 Кбит/сек
Каналы : 2 канала
Расположение каналов : Front: L R
Частота : 48,0 КГц
Частота кадров : 31,250 кадров/сек (1536 spf)
Битовая глубина : 16 бит
Метод сжатия : С потерями
Размер потока : 137 Мбайт (9%)
Выравнивание : Разделение по промежуткам
Продолжительность промежутка : 42 мс. (1,00 видеокадр)
Время предзагрузки промежутка : 500 мс.
ServiceKind/String : Complete Main

Аудио #2
Идентификатор : 2
Формат : AC-3
Формат/Информация : Audio Coding 3
Параметр Endianness формата : Big
Идентификатор кодека : 2000
Продолжительность : 1 ч. 39 м.
Вид битрейта : Постоянный
Битрейт : 192 Кбит/сек
Каналы : 2 канала
Расположение каналов : Front: L R
Частота : 48,0 КГц
Частота кадров : 31,250 кадров/сек (1536 spf)
Битовая глубина : 16 бит
Метод сжатия : С потерями
Размер потока : 137 Мбайт (9%)
Выравнивание : Разделение по промежуткам
Продолжительность промежутка : 42 мс. (1,00 видеокадр)
Время предзагрузки промежутка : 500 мс.
ServiceKind/String : Complete Main

pb.wtf



Скачать Фарфоровая луна через торрент http://pic1.kartinco.top/images/11/otajl.jpg Скачать фильм Фарфоровая луна через торрент бесплантно в хорошем качестве Описание: Нет ни одного преступления, которое бы не расследовал Кайл Бодин. Он внимателен к деталям и уверен: нет преступников, которые не ... 9 10 1
Info! Золотая раздача, скачанное не засчитывается.
Торрент: Зарегистрирован [2018-01-12 18:15] · скачан: 12 раз
Статус: √ проверено
Размер: 1.45 GB
Как cкачать? Как скачать Фарфоровая луна через торрент | qTorrent

% Раздел Тема Автор DL S | L
Фильмы [HD 720p, 1080p] (Хороший звук DUB, MVO) [ 11.49 GB ] Фарфоровая луна / China Moon [1991 BDRip 1080p by msltel] DVO 3 x AVO msltel Скачать
1 | 0
Фильмы [HD 720p, 1080p] (Хороший звук DUB, MVO) [ 3.99 GB ] Фарфоровая луна / China Moon [1991 BDRip 720p by msltel] DVO 3 x AVO msltel Скачать
1 | 0


>> Регистрируемся здесь <<






Отзывы и комментарии о схеме читаем и пишем здесь: ---> Отзывы и комментарии о схеме

Новые благодарочки в телеграм довольных пользователей:
скриншот   скриншот   скриншот   скриншот   скриншот

29-04-2018 19:43 Фарфоровая луна Скачать торрент  

Очень стильный и красивый неонуар, достойный представитель жанра. Великолепная игра артистов, прекрасно созданная атмосфера американского Юга, хорошая режиссура и съемки- смотрите, не пожалеете. Впечатляет, что вся правда о героях открывается только в самом конце фильма, а сам это финал необычен для нуара. Качество рипа и перевод хорошие. РЕКЛАМЫ НЕТ. спасибо за раздачу.pb.wtf



    Дорогой пользователь! Огромная просьба, поблагодарите релизера, оцените раздачу и оставьте свои комментарий, если Вы скачали Фарфоровая луна через торрент бесплатно! Внесите свою лепту в развитие PiratBit!
    Комментировать посты могут только пользователи прошедшие не сложную регистрацию
    Показать сообщения:    

    Фарфоровая луна через торрент
    Скачать бесплатно Фарфоровая луна
    Фарфоровая луна скачать торрент
    Фарфоровая луна смотреть онлайн
    Cкачать фильм Фарфоровая луна бесплатно
    Фарфоровая луна скачать торрент в хорошем качестве
    Фарфоровая луна смотреть онлайн бесплатно в хорошем качестве


    Вы не можете начинать темы
    Вы не можете отвечать на сообщения
    Вы не можете редактировать свои сообщения
    Вы не можете удалять свои сообщения
    Вы не можете голосовать в опросах
    Вы не можете прикреплять файлы к сообщениям
    Вы можете скачивать файлы