Ссылка на приватное зеркало нашего сайта всего за 1$. Внимание количество ограничено!!!

2 сезон

iTunes

1 сезон

1

2 сезон

2 сезон

iTunes

1 сезон

RePack

30

Новинка

ВАЖНО

ИГРА 18+

pack

RePack

MK11
pack

Забери бонус

RePack

jed

!!Акция!!

Alien_Rage

RePack

fifa19

RePack

Assassins Creed: Odyssey

RePack

NEED FOR SPEED™ PAYBACK

4 сезон

9 сезон

Бесстыжие 9 сезон

Все сериалы

все сериалы на PB.wtf

RePack

FAR CRY 5
  

Волшебники / The Magicians / Сезон 3 / Серии 1-13 из 13 (Скотт Смит, Майк Кэхилл, Ян Элиасберг) [2018, ужасы, фэнтези, драма, детектив, WEB-DLRip] MVO [LostFilm] pb.wtf

Волшебники через торрент pb.wtf

Раздают: 1 [ 0 KB/s ]
Размер: 7 GB | Добавлен: 2 года 7 мес. назад | Торрент скачан:160 раз
Скачать  

12-01-2018 22:24 Волшебники Скачать торрент  

Волшебники / The Magicians
Информация о фильме:

Название: Волшебники
Оригинальное название: The Magicians
Год выпуска: 2018
Страна: США
Жанр: ужасы, фэнтези, драма, детектив
Продолжительность: ~ 00:50:00 серия
Перевод: Профессиональный многоголосый | LostFilm
Субтитры: Русские, английские

Режиссер: Скотт Смит, Майк Кэхилл, Ян Элиасберг

rating

В ролях:

Эсме Бьянко, Стелла Маив, Джейсон Ральф, Майкл Кэссиди, Саммер Бишил, Дэвид Колл, Рик Уорси, Темби Лок, Арджун Гупта, Хейл Эйплмен

Описание:

В один прекрасный момент несколько 20-летних подростков удивительным образом оказываются в университете магии Брэйкбиллз, находящемся в Нью-Йорке. Парни делают необычное открытие, вносящее кардинальные перемены в их жизнь: как оказалось, умопомрачительный мир, о котором они так часто читали в детские годы, действительно есть. Не говоря уже о том, что, у всех у них есть собственные волшебные возможности. Но скоро обнаруживается, что жители данной скрытой от постороннего взгляда местности представляют собой гигантскую опасность для всего населения Земли.

Информация о файле:

Качество: WEB-DLRip | чистый видеоряд |
Формат: AVI
Видео кодек: XviD
Аудио кодек: MP3

Видео: ~ 1400 kbps, 720x400, 23.976 fps
Аудио#1 RU: mp3, 48.0 KHz, 2 ch, 128 kbps
Аудио#2 EN: mp3, 48.0 KHz, 2 ch, 128 kbps


скриншот   скриншот   скриншот   скриншот  

Общее
Полное имя : D:\Magicians (Season 03) LostFilm\The.Magicians.S03E01.WEB-DLRip.Rus.Eng.LostFilm.avi
Формат : AVI
Формат/Информация : Audio Video Interleave
Размер файла : 551 Мбайт
Продолжительность : 46 м. 11 с.
Общий поток : 1667 Кбит/сек
Программа кодирования : VirtualDubMod 1.5.10.3 | www.virtualdub-fr.org || (build 2550/release)
Библиотека кодирования : VirtualDubMod build 2550/release

Видео
Идентификатор : 0
Формат : MPEG-4 Visual
Профиль формата : Advanced Simple@L5
Параметр BVOP формата : 1
Параметр QPel формата : Нет
Параметр GMC формата : Без точки перехода
Параметр матрицы формата : Выборочная
Идентификатор кодека : XVID
Идентификатор кодека/Подсказка : XviD
Продолжительность : 46 м. 11 с.
Битрейт : 1397 Кбит/сек
Ширина : 720 пикселей
Высота : 400 пикселей
Соотношение сторон : 16:9
Частота кадров : 23,976 (23976/1000) кадра/сек
Цветовое пространство : YUV
Субдискретизация насыщенности : 4:2:0
Битовая глубина : 8 бит
Тип развёртки : Прогрессивная
Метод сжатия : С потерями
Бит/(Пиксели*Кадры) : 0.202
Размер потока : 461 Мбайт (84%)
Библиотека кодирования : XviD 73

Аудио #1
Идентификатор : 1
Формат : MPEG Audio
Версия формата : Version 1
Профиль формата : Layer 3
Режим : Joint stereo
Расширение режима : MS Stereo
Идентификатор кодека : 55
Идентификатор кодека/Подсказка : MP3
Продолжительность : 46 м. 11 с.
Вид битрейта : Постоянный
Битрейт : 128 Кбит/сек
Каналы : 2 канала
Частота : 48,0 КГц
Метод сжатия : С потерями
Размер потока : 42,3 Мбайт (8%)
Выравнивание : Соединение по промежуткам
Продолжительность промежутка : 42 мс. (1,00 видеокадр)
Время предзагрузки промежутка : 504 мс.

Аудио #2
Идентификатор : 2
Формат : MPEG Audio
Версия формата : Version 1
Профиль формата : Layer 3
Режим : Joint stereo
Расширение режима : MS Stereo
Идентификатор кодека : 55
Идентификатор кодека/Подсказка : MP3
Продолжительность : 46 м. 11 с.
Вид битрейта : Постоянный
Битрейт : 128 Кбит/сек
Каналы : 2 канала
Частота : 48,0 КГц
Метод сжатия : С потерями
Размер потока : 42,3 Мбайт (8%)
Выравнивание : Соединение по промежуткам
Продолжительность промежутка : 42 мс. (1,00 видеокадр)
Время предзагрузки промежутка : 504 мс.

Когда раздача ведётся путём добавления новых серий, при каждом добавлении создётся новый торрент. Чтобы начать докачку новой серии, пользователям необходимо сделать следующее:
(1) остановить скачивание,
(2) удалить старый торрент у себя из клиента (старые серии удалять не надо),
(3) скачать новый торрент и запустить его у себя в клиенте вместо старого, при этом указать клиенту путь в старую папку, куда и должно происходить скачивание новых серий.
Ваш клиент при этом должен произвести хеширование (проверку) старой папки (если не производит сам - помогите ему сделать это), и будет докачивать только те серии, которых у вас ещё нет. Старые серии при этом не удаляются, а продолжают раздаваться!
Eсли вы уже удалили старые серии, то предотвратить повторную закачку старых серий можно, отжав галочку в соответсвующих местах при запуске нового торрента. По возможности, желательно не удалять старые серии как можно дольше, чтобы релизёр не столько продолжал раздавать старые серии, а смог сконцентрироваться на новых.
pb.wtf



Скачать Волшебники через торрент http://i102.fastpic.ru/big/2018/0113/70/bb3fcba347849bc08607fa3348646370.png Скачать фильм Волшебники через торрент бесплантно в хорошем качестве Описание: В один прекрасный момент несколько 20-летних подростков удивительным образом оказываются в университете магии Брэйкбиллз, ... 9.7 10 9
Торрент: Зарегистрирован [2018-04-06 17:29] · скачан: 160 раз
Статус: √ проверено
Размер: 7 GB
Как cкачать? Как скачать Волшебники через торрент | qTorrent

% Раздел Тема Автор DL S | L
Зарубежные сериалы [ 26.69 GB ] Волшебники / The Magicians / Сезон: 3 / Серии: 1-13 из 13 [2018 WEB-DL 1080p] MVO [Jaskier] bober100 Скачать
1 | 0
Зарубежные сериалы [ 11.65 GB ] Волшебники / The Magicians / Сезон: 3 / Серии: 1-13 из 13 [2018 WEB-DL 720p] MVO [Jaskier] bober100 Скачать
1 | 0
Зарубежные сериалы [ 6.56 GB ] Волшебники / The Magicians / Сезон: 3 / Серии: 1-13 из 13 [2018 WEB-DLRip] MVO [Jaskier] bober100 Скачать
1 | 0
Зарубежные сериалы [ 23.69 GB ] Волшебники / The Magicians / Сезон 3 / Серии 1-13 из 13 [2018 WEB-DL 1080p] MVO [LostFilm] Vladislav@Pskov Скачать
1 | 0


Последний раз редактировалось: bober100 (2018-04-06 17:29), всего редактировалось 1 раз

28-11-2019 20:33  

Отключить всю рекламу на сайте

    Дорогой пользователь! Огромная просьба, поблагодарите релизера, оцените раздачу и оставьте свои комментарий, если Вы скачали Волшебники через торрент бесплатно! Внесите свою лепту в развитие PiratBit!
    Комментировать посты могут только пользователи прошедшие не сложную регистрацию
    Показать сообщения:    

    Волшебники через торрент
    Скачать бесплатно Волшебники
    Волшебники скачать торрент
    Волшебники смотреть онлайн
    Cкачать фильм Волшебники бесплатно
    Волшебники скачать торрент в хорошем качестве
    Волшебники смотреть онлайн бесплатно в хорошем качестве


    Вы не можете начинать темы
    Вы не можете отвечать на сообщения
    Вы не можете редактировать свои сообщения
    Вы не можете удалять свои сообщения
    Вы не можете голосовать в опросах
    Вы не можете прикреплять файлы к сообщениям
    Вы можете скачивать файлы