Ссылка на приватное зеркало нашего сайта всего за 1$. Внимание количество ограничено!!!

2 сезон

iTunes

1 сезон

1

iTunes

iTunes

iTunes

1 сезон

RePack

30

ИГРА 18+

pack

ВАЖНО

!!Акция!!

Alien_RageХит недели

RePack

MK11
pack

Забери бонус

RePack

jed

!!Акция!!

Alien_Rage

RePack

fifa19

RePack

Assassins Creed: Odyssey

RePack

NEED FOR SPEED™ PAYBACK

4 сезон

9 сезон

Бесстыжие 9 сезон

Все сериалы

все сериалы на PB.wtf

RePack

FAR CRY 5
  

Отель счастливых сердец / Серии 1-4 из 4 (Валерия Ивановская) [2017, Мелодрама, SATRip] pb.wtf

Отель счастливых сердец через торрент pb.wtf

Размер: 2.45 GB | Добавлен: 2 года 9 мес. назад | Торрент скачан:125 раз
Скачать  

13-01-2018 05:53 Отель счастливых сердец Скачать торрент  

Отель счастливых сердецГод выпуска: 2017
Страна: Россия
Жанр: Мелодрама
Продолжительность: 4 х ~ 00:45:00
Перевод: Не требуется
Субтитры: отсутствуют

Режиссер: Валерия Ивановская



В ролях:

Мария Куликова, Лариса Удовиченко, Анна Андрусенко, Елизавета Кононова, Любовь Матюшина, Андрей Барило, Елена Полякова, Александр Мякушко, Екатерина Тарасова, Юрий Батурин, Наталия Колоскова

Описание:

Вера - красавица, умница, самостоятельная женщина, строгая мать двух взрослых дочерей. Несколько лет назад ее любимый муж пропал без вести в Африке, и с тех пор Вера одна ведет семью и семейный бизнес, небольшой отель. Под ее неусыпным контролем все в идеальном порядке. Но долго так не бывает, и Верин аккуратный мир уже рушится - старые увлечения, новое чувство, африканские страсти, циничные интриги и трагическое стечение обстоятельств.

Качество: SATRip
Формат: AVI

Видео: XviD, ~ 1800 Кбит/с, 720x400
Аудио: MP3, 2 ch, 128 Кбит/с
скриншот  скриншот  скриншот  

Общее
Полное имя : D:\Otel.schastlivyh.serdec.SATRip\Otel.schastlivyh.serdec.01.SATRip.avi
Формат : AVI
Формат/Информация : Audio Video Interleave
Размер файла : 614 Мбайт
Продолжительность : 44 м. 16 с.
Общий поток : 1938 Кбит/сек
Программа кодирования : VirtualDubMod 1.5.10.3 | www.virtualdub-fr.org || (build 2550/release)
Библиотека кодирования : VirtualDubMod build 2550/release

Видео
Идентификатор : 0
Формат : MPEG-4 Visual
Профиль формата : Advanced Simple@L5
Параметр BVOP формата : 2
Параметр QPel формата : Нет
Параметр GMC формата : Без точки перехода
Параметр матрицы формата : Default (H.263)
Идентификатор кодека : XVID
Идентификатор кодека/Подсказка : XviD
Продолжительность : 44 м. 16 с.
Битрейт : 1800 Кбит/сек
Ширина : 720 пикселей
Высота : 400 пикселей
Соотношение сторон : 16:9
Частота кадров : 25,000 кадров/сек
Цветовое пространство : YUV
Субдискретизация насыщенности : 4:2:0
Битовая глубина : 8 бит
Тип развёртки : Прогрессивная
Метод сжатия : С потерями
Бит/(Пиксели*Кадры) : 0.250
Размер потока : 570 Мбайт (93%)
Библиотека кодирования : XviD 1.2.1 (UTC 2008-12-04)

Аудио
Идентификатор : 1
Формат : MPEG Audio
Версия формата : Version 1
Профиль формата : Layer 3
Режим : Joint stereo
Идентификатор кодека : 55
Идентификатор кодека/Подсказка : MP3
Продолжительность : 44 м. 16 с.
Вид битрейта : Постоянный
Битрейт : 128 Кбит/сек
Каналы : 2 канала
Частота : 48,0 КГц
Метод сжатия : С потерями
Размер потока : 40,5 Мбайт (7%)
Выравнивание : Соединение по промежуткам
Продолжительность промежутка : 40 мс. (1,00 видеокадр)
Время предзагрузки промежутка : 504 мс.
Библиотека кодирования : LAME3.99r
Настройки программы : -m j -V 4 -q 9 -lowpass 17 -b 128

pb.wtf



Скачать Отель счастливых сердец через торрент http://i102.fastpic.ru/big/2018/0106/31/648e750c32c941166014b559b3432631.jpg Скачать фильм Отель счастливых сердец через торрент бесплантно в хорошем качестве Описание: Вера - красавица, умница, самостоятельная женщина, строгая мать двух взрослых дочерей. Несколько лет назад ее любимый муж пропал ... 10 10 5
Торрент: Зарегистрирован [2018-01-13 05:53] · скачан: 125 раз
Статус: √ проверено
Размер: 2.45 GB
Как cкачать? Как скачать Отель счастливых сердец через торрент | qTorrent

28-11-2019 20:33  

Отключить всю рекламу на сайте

    Дорогой пользователь! Огромная просьба, поблагодарите релизера, оцените раздачу и оставьте свои комментарий, если Вы скачали Отель счастливых сердец через торрент бесплатно! Внесите свою лепту в развитие PiratBit!
    Комментировать посты могут только пользователи прошедшие не сложную регистрацию
    Показать сообщения:    

    Отель счастливых сердец через торрент
    Скачать бесплатно Отель счастливых сердец
    Отель счастливых сердец скачать торрент
    Отель счастливых сердец смотреть онлайн
    Cкачать фильм Отель счастливых сердец бесплатно
    Отель счастливых сердец скачать торрент в хорошем качестве
    Отель счастливых сердец смотреть онлайн бесплатно в хорошем качестве


    Вы не можете начинать темы
    Вы не можете отвечать на сообщения
    Вы не можете редактировать свои сообщения
    Вы не можете удалять свои сообщения
    Вы не можете голосовать в опросах
    Вы не можете прикреплять файлы к сообщениям
    Вы можете скачивать файлы