2 сезон

iTunes

1 сезон

1

iTunes

iTunes

iTunes

1 сезон

RePack

30

ИГРА 18+

pack

ВАЖНО

!!Акция!!

Alien_RageХит недели

RePack

MK11
pack

Забери бонус

RePack

jed

!!Акция!!

Alien_Rage

RePack

fifa19

RePack

Assassins Creed: Odyssey

RePack

NEED FOR SPEED™ PAYBACK

4 сезон

9 сезон

Бесстыжие 9 сезон

Все сериалы

все сериалы на PB.wtf

RePack

FAR CRY 5
  

Я люблю своего мужа / Серия 1-4 из 4 (Дмитрий Петрунь) [2016, Комедия, мелодрама, WEB-DLRip] pb.wtf

Я люблю своего мужа через торрент pb.wtf

Размер: 2.49 GB | Добавлен: 2 года 9 мес. назад | Торрент скачан:110 раз
Скачать  

13-01-2018 13:35 Я люблю своего мужа Скачать торрент  

Я люблю своего мужаГод выпуска: 2016
Страна: Россия, Украина
Жанр: Комедия, мелодрама
Продолжительность: x ~ 00:51:00
Субтитры: отсутствуют

Режиссер: Дмитрий Петрунь



В ролях:

Екатерина Климова, Иван Оганесян, Дмитрий Суржиков, Ада Роговцева, Владимир Горянский, Алина Гроссу, Денис Мартынов, Инна Беликова, Карина Воедило, Алексей Тритенко, Олег Примогенов

Описание:

Сергей считает, что за 15 лет брака знает все о своей жене Ольге. Она хорошая хозяйка и мать, но с годами стала скучной, неинтересной, «прочитанной книгой». Сергей регистрируется на сайте знакомств и заводит виртуальный роман с незнакомкой по имени Эмма. Стремительные виртуальные отношения становятся реальными. Женщина умна и очень соблазнительна. Правда прячет лицо и предпочитает встречаться в темноте, но это еще больше распаляет Сергея. В отличие от опостылевшей однообразной Ольги, Эмма – загадочна и притягательна...

Качество: WEB-DLRip
Формат: AVI

Видео: XviD, ~ 1565 Кбит/с, 720x400
Аудио: AC3, 2 ch, 192 Кбит/с
скриншот  скриншот  скриншот  

Общее
Полное имя : D:\Ja.liubliu.svoevo.muza.2016.WEB-DLRip.Files-x\01.Ja.liubliu.svoevo.muza.2016.WEB-DLRip.Files-x.avi
Формат : AVI
Формат/Информация : Audio Video Interleave
Размер файла : 650 Мбайт
Продолжительность : 51 м. 27 с.
Общий поток : 1767 Кбит/сек
Программа кодирования : VirtualDubMod 1.5.10.3 | www.virtualdub-fr.org || (build 2550/release)
Библиотека кодирования : VirtualDubMod build 2550/release

Видео
Идентификатор : 0
Формат : MPEG-4 Visual
Профиль формата : Advanced Simple@L5
Параметр BVOP формата : 1
Параметр QPel формата : Нет
Параметр GMC формата : Без точки перехода
Параметр матрицы формата : Выборочная
Идентификатор кодека : XVID
Идентификатор кодека/Подсказка : XviD
Продолжительность : 51 м. 27 с.
Битрейт : 1565 Кбит/сек
Ширина : 720 пикселей
Высота : 400 пикселей
Соотношение сторон : 16:9
Частота кадров : 25,000 кадров/сек
Цветовое пространство : YUV
Субдискретизация насыщенности : 4:2:0
Битовая глубина : 8 бит
Тип развёртки : Прогрессивная
Метод сжатия : С потерями
Бит/(Пиксели*Кадры) : 0.217
Размер потока : 576 Мбайт (89%)
Библиотека кодирования : XviD 73

Аудио
Идентификатор : 1
Формат : AC-3
Формат/Информация : Audio Coding 3
Расширение режима : CM (complete main)
Параметр Endianness формата : Big
Идентификатор кодека : 2000
Продолжительность : 51 м. 27 с.
Вид битрейта : Постоянный
Битрейт : 192 Кбит/сек
Каналы : 2 канала
Расположение каналов : Front: L R
Частота : 48,0 КГц
Частота кадров : 31,250 кадров/сек (1536 spf)
Метод сжатия : С потерями
Размер потока : 70,7 Мбайт (11%)
Выравнивание : Разделение по промежуткам
Продолжительность промежутка : 40 мс. (1,00 видеокадр)
Время предзагрузки промежутка : 500 мс.

Когда раздача ведётся путём добавления новых серий, при каждом добавлении создётся новый торрент. Чтобы начать докачку новой серии, пользователям необходимо сделать следующее:
(1) остановить скачивание,
(2) удалить старый торрент у себя из клиента (старые серии удалять не надо),
(3) скачать новый торрент и запустить его у себя в клиенте вместо старого, при этом указать клиенту путь в старую папку, куда и должно происходить скачивание новых серий.
Ваш клиент при этом должен произвести хеширование (проверку) старой папки (если не производит сам - помогите ему сделать это), и будет докачивать только те серии, которых у вас ещё нет. Старые серии при этом не удаляются, а продолжают раздаваться!
Eсли вы уже удалили старые серии, то предотвратить повторную закачку старых серий можно, отжав галочку в соответсвующих местах при запуске нового торрента. По возможности, желательно не удалять старые серии как можно дольше, чтобы релизёр не столько продолжал раздавать старые серии, а смог сконцентрироваться на новых.
pb.wtf



Скачать Я люблю своего мужа через торрент http://i100.fastpic.ru/big/2018/0113/37/d459388f870c2b92709e634692600f37.jpg Скачать фильм Я люблю своего мужа через торрент бесплантно в хорошем качестве Описание: Сергей считает, что за 15 лет брака знает все о своей жене Ольге. Она хорошая хозяйка и мать, но с годами стала скучной, ... 9 10 6
Торрент: Зарегистрирован [2018-01-13 16:36] · скачан: 110 раз
Статус: √ проверено
Размер: 2.49 GB
Как cкачать? Как скачать Я люблю своего мужа через торрент | qTorrent

% Раздел Тема Автор DL S | L
Наши сериалы [ 6.87 GB ] Я люблю своего мужа / Серия 1-4 из 4 [2016 WEB-DL 1080p] bober100 Скачать
2 | 0
Наши сериалы [ 2.22 GB ] Я люблю своего мужа / Серии: 1-4 из 4 [2016 SATRip-AVC] aleksan55 Скачать
1 | 0

28-11-2019 20:33  

Отключить всю рекламу на сайте

    Дорогой пользователь! Огромная просьба, поблагодарите релизера, оцените раздачу и оставьте свои комментарий, если Вы скачали Я люблю своего мужа через торрент бесплатно! Внесите свою лепту в развитие PiratBit!
    Комментировать посты могут только пользователи прошедшие не сложную регистрацию
    Показать сообщения:    

    Я люблю своего мужа через торрент
    Скачать бесплатно Я люблю своего мужа
    Я люблю своего мужа скачать торрент
    Я люблю своего мужа смотреть онлайн
    Cкачать фильм Я люблю своего мужа бесплатно
    Я люблю своего мужа скачать торрент в хорошем качестве
    Я люблю своего мужа смотреть онлайн бесплатно в хорошем качестве


    Вы не можете начинать темы
    Вы не можете отвечать на сообщения
    Вы не можете редактировать свои сообщения
    Вы не можете удалять свои сообщения
    Вы не можете голосовать в опросах
    Вы не можете прикреплять файлы к сообщениям
    Вы можете скачивать файлы