Доктор Стрэндж

Лицензия

Добыча

MVO

Дом дракона

1 сезон

Тор

Лицензия

Мэверик

Лицензия

Там, где раки поют

MVO

Властелин колец

1 сезон

Ultimate

pack

Рекомендуем

30

Repack

ВАЖНО

ВАЖНО

Ghostwire

RePack

jed

RePack

nioh2

RePack

RDR2

RePack

NEED FOR SPEED™ PAYBACK

RePack

скачать торрент

Кинопоиск HD

Острые козырьки 6 сезон

6 сезон

FAR CRY 6

RePack

скачать торрент

Лицензия

скачать торрент

MVO

1

1 сезон

скачать торрент

1 сезон

скачать торрент

Лицензия

  

Хотеть мужчину своей сестры / Desearás al hombre de tu hermana (Диего Каплан) [2017, драма, мелодрама, WEB-DL 720p] MVO ["Синема УС"]

Хотеть мужчину своей сестры через торрент pb.wtf

Размер: 3.11 GB | Добавлен: 4 года 8 мес. назад | Торрент скачан:147 раз
Смотреть онлайн Хотеть мужчину своей сестры | Скачать   

13-01-2018 17:25 Хотеть мужчину своей сестры Скачать торрент  

Хотеть мужчину своей сестры / Desearás al hombre de tu hermanaГод выпуска: 2017
Страна: Аргентина
Жанр: драма, мелодрама
Продолжительность: 01:34:36
Перевод: Любительский (многоголосый) - ["Синема УС"]
Субтитры: отсутствуют

Режиссер: Диего Каплан

rating

В ролях:

Каролина Ардоаин, Моника Антонопулос, Гильерме Винтер, Хуан Сорини, Андреа Фриджерио

Описание:

Эротическая драма. Становление сексуальности и постоянное соперничество двух сестёр за мужчин выливается в трагедию, когда одна из них выходит замуж

Качество: WEB-DL 720p
Формат: MKV
Видео кодек: H.264
Аудио кодек: AC3

Видео: 4322 Кбит/с, 1280x536
Аудио#1: Русский, (AC3, 2 ch, 384 Кбит/с)

скриншот   скриншот   скриншот  

Общее
Уникальный идентификатор : 227274694451017837176022326686598472345 (0xAAFB83932CE32268883E1176AE96A299)
Полное имя : D:\Desire.2017.P.WEB-DL.72Op_KOSHARA.mkv
Формат : Matroska
Версия формата : Version 2
Размер файла : 3,11 Гбайт
Продолжительность : 1 ч. 34 м.
Режим общего битрейта : Переменный
Общий поток : 4708 Кбит/сек
Дата кодирования : UTC 2018-01-11 13:48:36
Программа кодирования : mkvmerge v8.3.0 ('Over the Horizon') 64bit
Библиотека кодирования : libebml v1.3.1 + libmatroska v1.4.2

Видео
Идентификатор : 1
Формат : AVC
Формат/Информация : Advanced Video Codec
Профиль формата : [email protected]
Параметр CABAC формата : Да
Параметр ReFrames формата : 12 кадров
Идентификатор кодека : V_MPEG4/ISO/AVC
Продолжительность : 1 ч. 34 м.
Вид битрейта : Переменный
Битрейт : 4322 Кбит/сек
Максимальный битрейт : 4700 Кбит/сек
Ширина : 1280 пикселей
Высота : 536 пикселей
Соотношение сторон : 2,40:1
Режим частоты кадров : Постоянный
Частота кадров : 23,976 (24000/1001) кадра/сек
Стандарт вещания : Component
Цветовое пространство : YUV
Субдискретизация насыщенности : 4:2:0
Битовая глубина : 8 бит
Тип развёртки : Прогрессивная
Бит/(Пиксели*Кадры) : 0.257
Размер потока : 2,80 Гбайт (90%)
Default : Да
Forced : Нет
Цветовой диапазон : Limited
Основные цвета : BT.709
Характеристики трансфера : BT.709
Коэффициенты матрицы : BT.709

Аудио
Идентификатор : 2
Формат : AC-3
Формат/Информация : Audio Coding 3
Расширение режима : CM (complete main)
Параметр Endianness формата : Big
Идентификатор кодека : A_AC3
Продолжительность : 1 ч. 34 м.
Вид битрейта : Постоянный
Битрейт : 384 Кбит/сек
Каналы : 2 канала
Расположение каналов : Front: L R
Частота : 48,0 КГц
Частота кадров : 31,250 кадров/сек (1536 spf)
Метод сжатия : С потерями
Размер потока : 260 Мбайт (8%)
Default : Да
Forced : Нет




Скачать Хотеть мужчину своей сестры через торрент http://i100.fastpic.ru/big/2018/0113/cd/a6daee489a1538672de8fb23bfcbfacd.jpg Скачать, смотреть онлайн Хотеть мужчину своей сестры бесплантно в хорошем качестве Описание: Эротическая драма. Становление сексуальности и постоянное соперничество двух сестёр за мужчин выливается в трагедию, когда одна ... 9.5 10 4
Торрент: Зарегистрирован [2018-01-13 17:25] · скачан: 147 раз
Статус: T временная
Размер: 3.11 GB
Как cкачать? Как скачать Хотеть мужчину своей сестры через торрент | UTorrent

% Раздел Тема Автор DL S | L
T Фильмы (мультфильмы) cо спонсором показа (Новинки AVI/MKV) [ 1.37 GB ] Хотеть мужчину своей сестры / Desearás al hombre de tu hermana | MVO | DLRip bober100 Скачать
1 | 0

28-11-2019 20:33  

Отключить вcю реклaмy на сайте

    Дорогой пользователь! Огромная просьба, поблагодарите релизера, оцените раздачу и оставьте свои комментарий, если Вы скачали Хотеть мужчину своей сестры через торрент бесплатно!!
    Комментировать посты могут только пользователи прошедшие не сложную регистрацию
    Показать сообщения:    


    Хотеть мужчину своей сестры через торрент
    Скачать бесплатно Хотеть мужчину своей сестры
    Хотеть мужчину своей сестры скачать торрент
    Хотеть мужчину своей сестры смотреть онлайн
    Cкачать фильм Хотеть мужчину своей сестры бесплатно
    Хотеть мужчину своей сестры скачать торрент в хорошем качестве
    Хотеть мужчину своей сестры смотреть онлайн бесплатно в хорошем качестве
    Вы не можете начинать темы
    Вы не можете отвечать на сообщения
    Вы не можете редактировать свои сообщения
    Вы не можете удалять свои сообщения
    Вы не можете голосовать в опросах
    Вы не можете прикреплять файлы к сообщениям
    Вы можете скачивать файлы