Ссылка на приватное зеркало всего за 1$. Внимание количество ограничено!!!

OK

1+1

iTunes

мы

OK

1

WEB-DLRip

Джокер

Пифагор

Ведьмак / The Witcher сериал

iTunes

ПШазам

ОК

Оно 2

iTunes

30
pack

Вам бонус

ВАЖНО

!!Акция!!

Alien_RageХит недели

RePack

Resident Evil 21

ИГРА 18+

pack

RePack

jed

RePack

fifa19

RePack

Assassins Creed: Odyssey

RePack

NEED FOR SPEED™ PAYBACK

4 сезон

9 сезон

Бесстыжие 9 сезон

Все сериалы

все сериалы на PB.wtf

RePack

FAR CRY 5
  

Винсент и Рокси / Vincent N Roxxy (Гари Майкл Шул) [2016, триллер, драма, криминал, BDRip 720p] MVO [@MUZOBOZ@] pb.wtf

Винсент и Рокси через торрент pb.wtf

Размер: 4.24 GB | Добавлен: 2 года назад | Торрент скачан:59 раз
Скачать  

13-01-2018 17:58 Винсент и Рокси Скачать торрент  

Винсент и Рокси / Vincent N RoxxyГод выпуска: 2016
Страна: США
Жанр: триллер, драма, криминал
Продолжительность: 01:42:28
Перевод: Любительский (многоголосый) - [@MUZOBOZ@]
Субтитры: отсутствуют

Режиссер: Гари Майкл Шул

rating

В ролях:

Эмиль Хирш, Зои Кравиц, Зои Дойч, Эмори Коэн, Скотт Мескади, Бо Напп, Джейсон Митчелл, Джефф Гам, Ким Коллинз, Джои Бикиччи

Описание:

Напряженная история о любви и насилии. Двое мятежников в тяжелый период своей жизни неожиданно влюбляются друг в друга, но жестокое прошлое следует за ними по пятам.

Качество: BDRip 720p
Формат: MKV
Видео кодек: H.264
Аудио кодек: AC3

Видео: MPEG-4 AVC, 5470 Кбит/с, 1280x536
Аудио#1: AC3, 2 ch, 448 Кбит/с

скриншот  скриншот  скриншот  

Общее
Уникальный идентификатор : 172987279578210259969951834540819170695 (0x8224235F5B49D155B5F1C2B941DD4587)
Полное имя : D:\Vincent.N.Roxxy.2016.P.BDRip.72Op_KOSHARA.mkv
Формат : Matroska
Версия формата : Version 2
Размер файла : 4,24 Гбайт
Продолжительность : 1 ч. 42 м.
Режим общего битрейта : Переменный
Общий поток : 5920 Кбит/сек
Дата кодирования : UTC 2018-01-12 06:36:26
Программа кодирования : mkvmerge v8.3.0 ('Over the Horizon') 64bit
Библиотека кодирования : libebml v1.3.1 + libmatroska v1.4.2

Видео
Идентификатор : 1
Формат : AVC
Формат/Информация : Advanced Video Codec
Профиль формата : High@L4.1
Параметр CABAC формата : Да
Параметр ReFrames формата : 12 кадров
Идентификатор кодека : V_MPEG4/ISO/AVC
Продолжительность : 1 ч. 42 м.
Вид битрейта : Переменный
Битрейт : 5470 Кбит/сек
Максимальный битрейт : 6200 Кбит/сек
Ширина : 1280 пикселей
Высота : 536 пикселей
Соотношение сторон : 2,40:1
Режим частоты кадров : Постоянный
Частота кадров : 23,976 (24000/1001) кадра/сек
Стандарт вещания : Component
Цветовое пространство : YUV
Субдискретизация насыщенности : 4:2:0
Битовая глубина : 8 бит
Тип развёртки : Прогрессивная
Бит/(Пиксели*Кадры) : 0.325
Размер потока : 3,83 Гбайт (90%)
Default : Да
Forced : Нет
Цветовой диапазон : Limited
Основные цвета : BT.709
Характеристики трансфера : BT.709
Коэффициенты матрицы : BT.709

Аудио
Идентификатор : 2
Формат : AC-3
Формат/Информация : Audio Coding 3
Расширение режима : CM (complete main)
Параметр Endianness формата : Big
Идентификатор кодека : A_AC3
Продолжительность : 1 ч. 42 м.
Вид битрейта : Постоянный
Битрейт : 448 Кбит/сек
Каналы : 2 канала
Расположение каналов : Front: L R
Частота : 48,0 КГц
Частота кадров : 31,250 кадров/сек (1536 spf)
Метод сжатия : С потерями
Размер потока : 328 Мбайт (8%)
Default : Да
Forced : Нет

pb.wtf



Скачать Винсент и Рокси через торрент http://i103.fastpic.ru/big/2018/0113/09/865df451078670a8a97a60c14b6ff809.jpg Скачать фильм Винсент и Рокси через торрент бесплантно в хорошем качестве Описание: Напряженная история о любви и насилии. Двое мятежников в тяжелый период своей жизни неожиданно влюбляются друг в друга, но ... 8.2 10 5
Торрент: Зарегистрирован [2018-01-13 17:58] · скачан: 59 раз
Статус: # сомнительно
Размер: 4.24 GB
Как cкачать? Как скачать Винсент и Рокси через торрент | qTorrent

% Раздел Тема Автор DL S | L
T Фильмы (мультфильмы) cо спонсором показа (Новинки AVI/MKV) [ 1.36 GB ] Винсент и Рокси / Vincent N Roxxy [2016 HDRip] MVO [@MUZOBOZ@] bober100 Скачать
1 | 0

28-11-2019 20:33  

Отключить всю рекламу на сайте

    Дорогой пользователь! Огромная просьба, поблагодарите релизера, оцените раздачу и оставьте свои комментарий, если Вы скачали Винсент и Рокси через торрент бесплатно! Внесите свою лепту в развитие PiratBit!
    Комментировать посты могут только пользователи прошедшие не сложную регистрацию
    Показать сообщения:    

    Винсент и Рокси через торрент
    Скачать бесплатно Винсент и Рокси
    Винсент и Рокси скачать торрент
    Винсент и Рокси смотреть онлайн
    Cкачать фильм Винсент и Рокси бесплатно
    Винсент и Рокси скачать торрент в хорошем качестве
    Винсент и Рокси смотреть онлайн бесплатно в хорошем качестве


    Вы не можете начинать темы
    Вы не можете отвечать на сообщения
    Вы не можете редактировать свои сообщения
    Вы не можете удалять свои сообщения
    Вы не можете голосовать в опросах
    Вы не можете прикреплять файлы к сообщениям
    Вы можете скачивать файлы