Ссылка на приватное зеркало нашего сайта всего за 1$. Внимание количество ограничено!!!

2 сезон

iTunes

1 сезон

1

iTunes

iTunes

iTunes

1 сезон

RePack

30

ИГРА 18+

pack

ВАЖНО

!!Акция!!

Alien_RageХит недели

RePack

MK11
pack

Забери бонус

RePack

jed

!!Акция!!

Alien_Rage

RePack

fifa19

RePack

Assassins Creed: Odyssey

RePack

NEED FOR SPEED™ PAYBACK

4 сезон

9 сезон

Бесстыжие 9 сезон

Все сериалы

все сериалы на PB.wtf

RePack

FAR CRY 5
  

Света с того света / Сезон 1 / Серии 1-15 из 15 (Максим Пежемский) [2018 , комедия, HDTV 1080p] R.G.Generalfilm pb.wtf

Света с того света через торрент pb.wtf

Размер: 15.38 GB | Добавлен: 2 года 9 мес. назад | Торрент скачан:122 раза
Скачать  

13-01-2018 18:13 Света с того света Скачать торрент  

Света с того света


Год выпуска: 2018

Страна: Россия
Жанр: комедия
Продолжительность: 00:19:20
Перевод: Не требуется [Русский]
Режиссер: Максим Пежемский
В ролях:

Мария Машкова (Света), Анна Котова (Ирка), Кирилл Каганович (Паша), Александр Ратников (Игорь), Борис Каморзин (Цыпин), Евгения Дмитриева (Оксана), Виктор Супрун (Мент), Артем Лысков (Дылда), Вилен Бабичев (амбал), Юлия Писаренко (администратор салона красоты), Вероника Тимофеева (Анжела), Артем Маркарьян (очкарик)
Описание:
«Света с того света» - это история про обаятельную мошенницу, девушку Свету, после несчастного случая оказавшуюся ограниченной в движении. Чтобы вновь встать на ноги, Свете нужна платная операция. Но как заработать, если нет возможности даже выйти из дома? У Светы появляется идея! На просторах интернета она, представляясь магом-биоэнерготерапевтом Светозарой, за небольшую плату помогает людям решить их личные проблемы.

Качество: HDTV 1080p by
Формат: MKV
Видео кодек: AVC
Аудио кодек: AC3
Видео: AVC, 1920x1080 (16:9), 5680 kbps, 25 fps, 0,110 bpp
Аудио: AC3 / 2.0 / 48 kHz / 192 kbps /
General
Unique ID : 254551061202260591981322977498838158233 (0xBF80C0490A2D275D8ECC832E2A454B99)
Complete name : E:\Sveta s togo sveta 2018 HDTV 1080p R.G.Generalfilm\Sveta s togo sveta..s01.e05.2018.HDTV 1080p.by.White Smoke.R.G.Generalfilm.mkv
Format : Matroska
Format version : Version 4 / Version 2
File size : 829 MiB
Duration : 19 min
Overall bit rate mode : Constant
Overall bit rate : 5 991 kb/s
Movie name : Sveta s togo sveta..s01.e05.2018.HDTV 1080p.by.White Smoke.R.G.Generalfilm.mkv
Encoded date : UTC 2018-01-13 17:06:27
Writing application : mkvmerge v6.8.0 ('Theme for Great Cities') 64bit built on Mar 2 2014 21:34:26
Writing library : libebml v1.3.0 + libmatroska v1.4.1

Video
ID : 1
Format : AVC
Format/Info : Advanced Video Codec
Format profile : High@L4.1
Format settings, CABAC : Yes
Format settings, ReFrames : 3 frames
Codec ID : V_MPEG4/ISO/AVC
Duration : 19 min
Bit rate mode : Constant
Bit rate : 5 680 kb/s
Nominal bit rate : 7 051 kb/s
Width : 1 920 pixels
Height : 1 080 pixels
Display aspect ratio : 16:9
Frame rate mode : Constant
Frame rate : 25.000 FPS
Standard : PAL
Color space : YUV
Chroma subsampling : 4:2:0
Bit depth : 8 bits
Scan type : Progressive
Bits/(Pixel*Frame) : 0.110
Stream size : 786 MiB (95%)
Default : Yes
Forced : No
Color range : Limited
Color primaries : BT.709
Transfer characteristics : BT.709
Matrix coefficients : BT.709

Audio
ID : 2
Format : AC-3
Format/Info : Audio Coding 3
Mode extension : CM (complete main)
Format settings, Endianness : Big
Codec ID : A_AC3
Duration : 19 min
Bit rate mode : Constant
Bit rate : 192 kb/s
Channel(s) : 2 channels
Channel positions : Front: L R
Sampling rate : 48.0 kHz
Frame rate : 31.250 FPS (1536 spf)
Compression mode : Lossy
Stream size : 26.6 MiB (3%)
Default : Yes
Forced : No
Внимание! Раздача ведётся путём добавления новых серий; при каждом добавлении создаётся новый торрент.
Чтобы начать докачку новой серии, пользователям необходимо сделать следующее:
1. Остановить скачивание;
2. Удалить старый торрент у себя из клиента (старые серии удалять не надо);
3. Скачать новый торрент и запустить его у себя в клиенте вместо старого, при этом указать клиенту путь в старую папку куда и должно происходить скачивание новых серий. Ваш клиент при этом должен произвести хеширование (проверку) старой папки и будет докачивать только те серии, которых у вас ещё нет. Старые серии при этом не удаляются, а продолжают раздаваться! Eсли вы уже удалили старые серии, то предотвратить повторную закачку старых серий можно, отжав галочку в соответствующих местах при запуске нового торрента.
pb.wtf



Скачать Света с того света через торрент http://i101.fastpic.ru/big/2018/0113/ba/f000d630eee4d6b9316f7b1db64284ba.jpg Скачать фильм Света с того света через торрент бесплантно в хорошем качестве Описание: «Света с того света» - это история про обаятельную мошенницу, девушку Свету, после несчастного случая оказавшуюся ограниченной в ... 8 10 8
Info! Золотая раздача, скачанное не засчитывается.
Торрент: Зарегистрирован [2018-01-18 23:36] · скачан: 122 раз
Статус: √ проверено
Размер: 15.38 GB
Как cкачать? Как скачать Света с того света через торрент | qTorrent

28-11-2019 20:33  

Отключить всю рекламу на сайте

    Дорогой пользователь! Огромная просьба, поблагодарите релизера, оцените раздачу и оставьте свои комментарий, если Вы скачали Света с того света через торрент бесплатно! Внесите свою лепту в развитие PiratBit!
    Комментировать посты могут только пользователи прошедшие не сложную регистрацию
    Показать сообщения:    

    Света с того света через торрент
    Скачать бесплатно Света с того света
    Света с того света скачать торрент
    Света с того света смотреть онлайн
    Cкачать фильм Света с того света бесплатно
    Света с того света скачать торрент в хорошем качестве
    Света с того света смотреть онлайн бесплатно в хорошем качестве


    Вы не можете начинать темы
    Вы не можете отвечать на сообщения
    Вы не можете редактировать свои сообщения
    Вы не можете удалять свои сообщения
    Вы не можете голосовать в опросах
    Вы не можете прикреплять файлы к сообщениям
    Вы можете скачивать файлы