Ссылка на приватное зеркало нашего сайта всего за 1$. Внимание количество ограничено!!!

2 сезон

iTunes

1 сезон

1

2 сезон

2 сезон

iTunes

1 сезон

RePack

30

Ultimate

ВАЖНО

ИГРА 18+

pack

RePack

MK11
pack

Забери бонус

RePack

jed

!!Акция!!

Alien_Rage

RePack

fifa19

RePack

Assassins Creed: Odyssey

RePack

NEED FOR SPEED™ PAYBACK

4 сезон

9 сезон

Бесстыжие 9 сезон

Все сериалы

все сериалы на PB.wtf

RePack

FAR CRY 5
  

Заложница / Taken / Сезон: 2 / Серии: 1-16 из 16 (Ромео Тироне, Лекси Александр, Алекс Грейвз) [2018, Боевик, триллер, WEBRip 1080p] MVO [BaibaKo] pb.wtf

Заложница через торрент pb.wtf

Размер: 40.89 GB | Добавлен: 2 года 4 мес. назад | Торрент скачан:1 раз
Скачать  

13-01-2018 20:49 Заложница Скачать торрент  

Заложница / TakenГод выпуска: 2018
Страна: США, Франция
Жанр: Боевик, триллер
Продолжительность: ~ 00:45:00
Перевод: Профессиональный многоголосый | BaibaKo
Субтитры: отсутствуют

Режиссер: Ромео Тироне, Лекси Александр, Алекс Грейвз

rating

В ролях:

Клайв Стэнден, Джеймс Хеберт, Симу Лью, Дженнифер Марсала, Мэттью Беннетт, Романо Орцари, Саад Сиддикуи, Джанет Рэкуэл, Дженнифер Билз, Моник Кёрнен

Описание:

Это история молодого Брайана Миллса, бывшего «зеленого берета», пережившего трагедию, которая полностью изменила его. Справляясь с последствиями травмы, Миллс становится оперативником ЦРУ, и новая работа пробуждает в нем особенные и невероятно опасные таланты.

Качество: WEBRip 1080p
Формат: MKV
Видео кодек: H.264
Аудио кодек: AC3

Видео: MPEG-4 AVC, ~ 8546 Кбит/с, 1920x1080
Аудио#1: Русский (AC3, 6 ch, 640 Кбит/с)
Аудио#2: английский (AC3, 6 ch, 640 Кбит/с)
скриншот   скриншот   скриншот   скриншот   скриншот  скриншот  

Общее
Уникальный идентификатор : 234325536199422720551533075364867395748 (0xB04974E9A48F257FB4AB703F79AAD0A4)
Полное имя : D:\Taken.s02.HD1080p.WEBRip.Rus.Eng.BaibaKo.tv\Taken.s02e01.HD1080p.WEBRip.Rus.Eng.BaibaKo.tv.mkv
Формат : Matroska
Версия формата : Version 4 / Version 2
Размер файла : 3,01 Гбайт
Продолжительность : 43 м. 52 с.
Общий поток : 9829 Кбит/сек
Дата кодирования : UTC 2018-01-13 19:26:21
Программа кодирования : mkvmerge v9.3.1 ('Mask Machine') 64bit
Библиотека кодирования : libebml v1.3.4 + libmatroska v1.4.5

Видео
Идентификатор : 1
Формат : AVC
Формат/Информация : Advanced Video Codec
Профиль формата : High@L4
Параметр CABAC формата : Да
Параметр ReFrames формата : 4 кадра
Идентификатор кодека : V_MPEG4/ISO/AVC
Продолжительность : 43 м. 52 с.
Битрейт : 8546 Кбит/сек
Ширина : 1920 пикселей
Высота : 1080 пикселей
Соотношение сторон : 16:9
Режим частоты кадров : Постоянный
Частота кадров : 23,976 (24000/1001) кадра/сек
Цветовое пространство : YUV
Субдискретизация насыщенности : 4:2:0
Битовая глубина : 8 бит
Тип развёртки : Прогрессивная
Бит/(Пиксели*Кадры) : 0.172
Размер потока : 2,62 Гбайт (87%)
Библиотека кодирования : x264 core 152 r2851 ba24899
Настройки программы : cabac=1 / ref=3 / deblock=1:0:0 / analyse=0x3:0x113 / me=hex / subme=7 / psy=1 / psy_rd=1.00:0.00 / mixed_ref=1 / me_range=16 / chroma_me=1 / trellis=1 / 8x8dct=1 / cqm=0 / deadzone=21,11 / fast_pskip=1 / chroma_qp_offset=-2 / threads=30 / lookahead_threads=5 / sliced_threads=0 / nr=0 / decimate=1 / interlaced=0 / bluray_compat=0 / constrained_intra=0 / bframes=3 / b_pyramid=2 / b_adapt=1 / b_bias=0 / direct=1 / weightb=1 / open_gop=0 / weightp=2 / keyint=240 / keyint_min=23 / scenecut=40 / intra_refresh=0 / rc_lookahead=40 / rc=crf / mbtree=1 / crf=18.0 / qcomp=0.60 / qpmin=0 / qpmax=69 / qpstep=4 / ip_ratio=1.40 / aq=1:1.00
Default : Нет
Forced : Нет

Аудио #1
Идентификатор : 2
Формат : AC-3
Формат/Информация : Audio Coding 3
Расширение режима : CM (complete main)
Параметр Endianness формата : Big
Идентификатор кодека : A_AC3
Продолжительность : 43 м. 52 с.
Вид битрейта : Постоянный
Битрейт : 640 Кбит/сек
Каналы : 6 каналов
Расположение каналов : Front: L C R, Side: L R, LFE
Частота : 48,0 КГц
Частота кадров : 31,250 кадров/сек (1536 spf)
Метод сжатия : С потерями
Размер потока : 201 Мбайт (7%)
Язык : Russian
Default : Да
Forced : Нет

Аудио #2
Идентификатор : 3
Формат : AC-3
Формат/Информация : Audio Coding 3
Расширение режима : CM (complete main)
Параметр Endianness формата : Big
Идентификатор кодека : A_AC3
Продолжительность : 43 м. 52 с.
Вид битрейта : Постоянный
Битрейт : 640 Кбит/сек
Каналы : 6 каналов
Расположение каналов : Front: L C R, Side: L R, LFE
Частота : 48,0 КГц
Частота кадров : 31,250 кадров/сек (1536 spf)
Метод сжатия : С потерями
Размер потока : 201 Мбайт (7%)
Язык : English
Default : Нет
Forced : Нет

Когда раздача ведётся путём добавления новых серий, при каждом добавлении создётся новый торрент. Чтобы начать докачку новой серии, пользователям необходимо сделать следующее
(1) остановить скачивание,
(2) удалить старый торрент у себя из клиента (старые серии удалять не надо),
(3) скачать новый торрент и запустить его у себя в клиенте вместо старого, при этом указать клиенту путь в старую папку, куда и должно происходить скачивание новых серий.
Ваш клиент при этом должен произвести хеширование (проверку) старой папки (если не производит сам - помогите ему сделать это), и будет докачивать только те серии, которых у вас ещё нет. Старые серии при этом не удаляются, а продолжают раздаваться!
Eсли вы уже удалили старые серии, то предотвратить повторную закачку старых серий можно, отжав галочку в соответсвующих местах при запуске нового торрента. По возможности, желательно не удалять старые серии как можно дольше, чтобы релизёр не столько продолжал раздавать старые серии, а смог сконцентрироваться на новых.
pb.wtf



Скачать Заложница через торрент http://i101.fastpic.ru/big/2018/0113/e1/bffdef3bbee2345d8e2127c7bdb409e1.jpg Скачать фильм Заложница через торрент бесплантно в хорошем качестве Описание: Это история молодого Брайана Миллса, бывшего «зеленого берета», пережившего трагедию, которая полностью изменила его. Справляясь ... 8.4 10 5
Info! Золотая раздача, скачанное не засчитывается.
Торрент: Зарегистрирован [2018-07-04 09:01] · скачан: 1 раз
Статус: √ проверено
Размер: 40.89 GB
Как cкачать? Как скачать Заложница через торрент | qTorrent

% Раздел Тема Автор DL S | L
Зарубежные сериалы [ 28.71 GB ] Заложница / Taken / Сезон: 2 / Серии: 1-16 из 16 [2018 WEB-DL 1080p] MVO [LostFilm] bober100 Скачать
1 | 0
Зарубежные сериалы [ 23 GB ] Заложница / Taken / Сезон: 2 / Серии: 1-16 из 16 [2018 WEB-DL 720p] MVO [NewStudio] bober100 Скачать
1 | 0
Зарубежные сериалы [ 8.6 GB ] Заложница / Taken / Сезон: 2 / Серии: 1-16 из 16 [2018 WEB-DLRip] MVO [NewStudio] bober100 Скачать
1 | 0
Зарубежные сериалы [ 24.23 GB ] Заложница / Taken / Сезон: 2 / Серии: 1-16 из 16 [2018 WEBRip 720p] MVO [Jaskier] bober100 Скачать
1 | 0
Зарубежные сериалы [ 7.72 GB ] Заложница / Taken / Сезон: 2 / Серии 1-16 из 16 [2017 WEBRip WEB-DLRip] MVO [BaibaKo] GEKADOL Скачать
1 | 0
Зарубежные сериалы [ 25.09 GB ] Заложница / Taken / Сезон: 2 / Серии 1-16 из 16 [2017 WEBRip 720p WEB-DL 720p] MVO [BaibaKo] GEKADOL Скачать
1 | 0
Зарубежные сериалы [ 9.16 GB ] Заложница / Taken / Сезон: 2 / Серии: 1-16 из 16 [2018 WEBRip WEB-DLRip] MVO [BaibaKo] bober100 Скачать
1 | 0

28-11-2019 20:33  

Отключить всю рекламу на сайте

    Дорогой пользователь! Огромная просьба, поблагодарите релизера, оцените раздачу и оставьте свои комментарий, если Вы скачали Заложница через торрент бесплатно! Внесите свою лепту в развитие PiratBit!
    Комментировать посты могут только пользователи прошедшие не сложную регистрацию
    Показать сообщения:    

    Заложница через торрент
    Скачать бесплатно Заложница
    Заложница скачать торрент
    Заложница смотреть онлайн
    Cкачать фильм Заложница бесплатно
    Заложница скачать торрент в хорошем качестве
    Заложница смотреть онлайн бесплатно в хорошем качестве


    Вы не можете начинать темы
    Вы не можете отвечать на сообщения
    Вы не можете редактировать свои сообщения
    Вы не можете удалять свои сообщения
    Вы не можете голосовать в опросах
    Вы не можете прикреплять файлы к сообщениям
    Вы можете скачивать файлы