Ссылка на приватное зеркало нашего сайта всего за 1$. Внимание количество ограничено!!!

2 сезон

iTunes

1 сезон

1

iTunes

iTunes

iTunes

1 сезон

RePack

30

ИГРА 18+

pack

ВАЖНО

!!Акция!!

Alien_RageХит недели

RePack

MK11
pack

Забери бонус

RePack

jed

!!Акция!!

Alien_Rage

RePack

fifa19

RePack

Assassins Creed: Odyssey

RePack

NEED FOR SPEED™ PAYBACK

4 сезон

9 сезон

Бесстыжие 9 сезон

Все сериалы

все сериалы на PB.wtf

RePack

FAR CRY 5
  

Смерть скачет на коне / Da uomo a uomo (Джулио Петрони) [1967, вестерн, BDRip 1080p by msltel] MVO, DVO, AVO pb.wtf

Смерть скачет на коне через торрент pb.wtf

Размер: 11.72 GB | Добавлен: 2 года 9 мес. назад | Торрент скачан:18 раз
Скачать  

14-01-2018 07:03 Смерть скачет на коне Скачать торрент  

Название: Смерть скачет на коне
Оригинальное название: Da uomo a uomo
Год выпуска: 1967
Страна: Италия
Жанр: вестерн
Продолжительность: 01:54:57
Перевод: профессиональный многоголосый, профессиональный двухголосый, авторский

Режиссер: Джулио Петрони
В ролях: Ли Ван Клиф, Джон Филлип Лоу, Марио Брега, Энтони Доусон, Франко Бальдуччи, Бруно Кораццари, Феличита Фанни, Игнацио Леоне

О фильме: Бандиты убивают всех жителей ранчо. Всех. За исключением маленького мальчика. Прошло пятнадцать лет, мальчик вырос, но не оставил цель наказать убийц. В это же время из тюрьмы освобождается Райан, один из участников нападения, преданный своими подельниками...



Качество: BDRip 1080p
Формат: MKV
Видео: MPEG-4 AVC, 13.9 Mбит/с, 1920x820
Аудио 1: русский, AC3, 192 kbps, 2 ch, 48 kHz [профессиональный многоголосый, Спб, 5 канал]
Аудио 2: русский, AC3, 192 kbps, 2 ch, 48 kHz [профессиональный двухголосый,HTB+]
Аудио 3: русский, AC3, 192 kbps, 2 ch, 48 kHz [авторский, Сергей Кузнецов]
Аудио 4: итальянский, AC3, 128 kbps, 2 ch, 48 kHz [оригинал]
Неименованные главы/чаптеры.
Общее
Уникальный идентификатор : 240420683774206516803370267589338473428 (0xB4DF56E3C68DE87AB664A781AD8823D4)
Полное имя : D:\Video\Смерть скачет на коне.1967.BDRip.1080p by msltel.mkv
Формат : Matroska
Версия формата : Version 4 / Version 2
Размер файла : 11,7 Гбайт
Продолжительность : 1 ч. 54 м.
Общий поток : 14,6 Мбит/сек
Название фильма : Rip by msltel
Дата кодирования : UTC 2018-01-13 12:11:44
Программа кодирования : mkvmerge v8.2.0 ('World of Adventure') 64bit
Библиотека кодирования : libebml v1.3.1 + libmatroska v1.4.2

Видео
Идентификатор : 1
Формат : AVC
Формат/Информация : Advanced Video Codec
Профиль формата : High@L4.1
Настройки формата : CABAC / 4 Ref Frames
Параметр CABAC формата : Да
Параметр RefFrames формата : 4 кадра
Идентификатор кодека : V_MPEG4/ISO/AVC
Продолжительность : 1 ч. 54 м.
Битрейт : 13,9 Мбит/сек
Ширина : 1920 пикселей
Высота : 820 пикселей
Соотношение сторон : 2,35:1
Режим частоты кадров : Постоянный
Частота кадров : 23,976 (24000/1001) кадра/сек
Цветовое пространство : YUV
Субдискретизация насыщенности : 4:2:0
Битовая глубина : 8 бит
Тип развёртки : Прогрессивная
Бит/(Пиксели*Кадры) : 0.368
Размер потока : 11,2 Гбайт (95%)
Библиотека кодирования : x264 core 146 r2538 121396c
Настройки программы : cabac=1 / ref=4 / deblock=1:-3:-2 / analyse=0x3:0x113 / me=umh / subme=11 / psy=1 / psy_rd=1.00:0.15 / mixed_ref=1 / me_range=32 / chroma_me=1 / trellis=2 / 8x8dct=1 / cqm=0 / deadzone=21,11 / fast_pskip=0 / chroma_qp_offset=-3 / threads=6 / lookahead_threads=1 / sliced_threads=0 / nr=0 / decimate=1 / interlaced=0 / bluray_compat=0 / constrained_intra=0 / bframes=9 / b_pyramid=2 / b_adapt=2 / b_bias=0 / direct=1 / weightb=1 / open_gop=0 / weightp=2 / keyint=230 / keyint_min=23 / scenecut=40 / intra_refresh=0 / rc_lookahead=40 / rc=crf / mbtree=0 / crf=17.7 / qcomp=0.60 / qpmin=0 / qpmax=69 / qpstep=4 / vbv_maxrate=62500 / vbv_bufsize=78125 / crf_max=0.0 / nal_hrd=none / filler=0 / ip_ratio=1.40 / pb_ratio=1.30 / aq=1:1.00
Язык : Italian
Default : Да
Forced : Нет

Аудио #1
Идентификатор : 2
Формат : AC-3
Формат/Информация : Audio Coding 3
Идентификатор кодека : A_AC3
Продолжительность : 1 ч. 54 м.
Вид битрейта : Постоянный
Битрейт : 192 Кбит/сек
Каналы : 2 канала
Расположение каналов : Front: L R
Частота : 48,0 КГц
Частота кадров : 31,250 кадров/сек (1536 SPF)
Битовая глубина : 16 бит
Метод сжатия : С потерями
Размер потока : 158 Мбайт (1%)
Заголовок : MVO.Спб, 5 канал
Язык : Russian
ServiceKind/String : Complete Main
Default : Да
Forced : Нет

Аудио #2
Идентификатор : 3
Формат : AC-3
Формат/Информация : Audio Coding 3
Идентификатор кодека : A_AC3
Продолжительность : 1 ч. 54 м.
Вид битрейта : Постоянный
Битрейт : 192 Кбит/сек
Каналы : 2 канала
Расположение каналов : Front: L R
Частота : 48,0 КГц
Частота кадров : 31,250 кадров/сек (1536 SPF)
Битовая глубина : 16 бит
Метод сжатия : С потерями
Размер потока : 158 Мбайт (1%)
Заголовок : DVO.HTB+
Язык : Russian
ServiceKind/String : Complete Main
Default : Нет
Forced : Нет

Аудио #3
Идентификатор : 4
Формат : AC-3
Формат/Информация : Audio Coding 3
Идентификатор кодека : A_AC3
Продолжительность : 1 ч. 54 м.
Вид битрейта : Постоянный
Битрейт : 192 Кбит/сек
Каналы : 2 канала
Расположение каналов : Front: L R
Частота : 48,0 КГц
Частота кадров : 31,250 кадров/сек (1536 SPF)
Битовая глубина : 16 бит
Метод сжатия : С потерями
Размер потока : 158 Мбайт (1%)
Заголовок : Сергей Кузнецов
Язык : Russian
ServiceKind/String : Complete Main
Default : Нет
Forced : Нет

Аудио #4
Идентификатор : 5
Формат : AC-3
Формат/Информация : Audio Coding 3
Идентификатор кодека : A_AC3
Продолжительность : 1 ч. 54 м.
Вид битрейта : Постоянный
Битрейт : 128 Кбит/сек
Каналы : 2 канала
Расположение каналов : Front: L R
Частота : 48,0 КГц
Частота кадров : 31,250 кадров/сек (1536 SPF)
Битовая глубина : 16 бит
Метод сжатия : С потерями
Размер потока : 105 Мбайт (1%)
Заголовок : original
Язык : Italian
ServiceKind/String : Complete Main
Default : Нет
Forced : Нет

Меню
00:00:00.000 : :Chapter 01
00:09:11.801 : :Chapter 02
00:17:38.307 : :Chapter 03
00:26:57.866 : :Chapter 04
00:36:05.913 : :Chapter 05
00:45:07.162 : :Chapter 06
00:51:28.668 : :Chapter 07
01:03:50.409 : :Chapter 08
01:11:55.769 : :Chapter 09
01:26:01.239 : :Chapter 10
01:40:56.508 : :Chapter 11
01:54:56.890 : :Chapter 12
pb.wtf



Скачать Смерть скачет на коне через торрент https://a.radikal.ru/a33/1801/09/1dbf7ab8c9f3.jpg Скачать фильм Смерть скачет на коне через торрент бесплантно в хорошем качестве О фильме: Бандиты убивают всех жителей ранчо. Всех. За исключением маленького мальчика. Прошло пятнадцать лет, мальчик вырос, но не оставил ... 10 10 2
Info! Золотая раздача, скачанное не засчитывается.
Торрент: Зарегистрирован [2018-01-14 07:03] · скачан: 18 раз
Статус: √ проверено
Размер: 11.72 GB
Как cкачать? Как скачать Смерть скачет на коне через торрент | qTorrent

% Раздел Тема Автор DL S | L
Фильмы [HD 720p, 1080p] (Хороший звук DUB, MVO) [ 7.87 GB ] Смерть скачет на коне / Death Rides a Horse / Da uomo a uomo [1967 BDRip 720p от _denis_100 | NNNB] MVO + DVO + AVO + Original + Sub _denis_100 Скачать
1 | 0
Фильмы [HD 720p, 1080p] (Хороший звук DUB, MVO) [ 4.81 GB ] Смерть скачет на коне / Da uomo a uomo [1967 BDRip 720p by msltel] MVO DVO AVO msltel Скачать
1 | 0

28-11-2019 20:33  

Отключить всю рекламу на сайте

    Дорогой пользователь! Огромная просьба, поблагодарите релизера, оцените раздачу и оставьте свои комментарий, если Вы скачали Смерть скачет на коне через торрент бесплатно! Внесите свою лепту в развитие PiratBit!
    Комментировать посты могут только пользователи прошедшие не сложную регистрацию
    Показать сообщения:    

    Смерть скачет на коне через торрент
    Скачать бесплатно Смерть скачет на коне
    Смерть скачет на коне скачать торрент
    Смерть скачет на коне смотреть онлайн
    Cкачать фильм Смерть скачет на коне бесплатно
    Смерть скачет на коне скачать торрент в хорошем качестве
    Смерть скачет на коне смотреть онлайн бесплатно в хорошем качестве


    Вы не можете начинать темы
    Вы не можете отвечать на сообщения
    Вы не можете редактировать свои сообщения
    Вы не можете удалять свои сообщения
    Вы не можете голосовать в опросах
    Вы не можете прикреплять файлы к сообщениям
    Вы можете скачивать файлы