Достать ножи: Стеклянная луковица

MVO

Добыча

Дубляж

Уэнсдэй

1 сезон

Тор

Дубляж

13 клиническая

1 сезон

Жестокая ночь

MVO

Одни из нас

1 сезон

Deluxe

pack

Рекомендуем

30

Пиратка

ВАЖНО

ВАЖНО

Ghostwire

Пиратка

jed

RePack

nioh2

RePack

RDR2

RePack

NEED FOR SPEED™ PAYBACK

RePack

скачать торрент

Кинопоиск HD

Острые козырьки 6 сезон

6 сезон

FAR CRY 6

RePack

скачать торрент

Лицензия

скачать торрент

MVO

1

1 сезон

скачать торрент

1 сезон

скачать торрент

Лицензия

  

Аннушка (Борис Барнет, Георгий Натансон) [1959, СССР, драма, SATRip от AVP Studio]

Аннушка через торрент pb.wtf

Размер: 1.09 GB | Добавлен: 5 лет назад | Торрент скачан:14 раз
Смотреть онлайн | Скачать | Поддержите нас   

14-01-2018 09:00 Аннушка Скачать торрент  

Аннушка
Страна: СССР
Производство: Мосфильм

Жанр: драма
Год выпуска: 1959
Продолжительность: 01:24:08

Перевод: Не требуется
Cубтитры: нет
Оригинальная аудиодорожка: русский

Режиссер: Борис Барнет, Георгий Натансон

В ролях:
Ирина Скобцева, Анастасия Георгиевская, Борис Бабочкин, Галина Токарева, Лев Барашков, Эдуард Марцевич, Ольга Аросева, Елена Королёва, Оля Малышева, Таня Малышева, Сережа Карнаухов, Паша Борискин, Таня Сергеева, Игорь Вольский...
Об актёрах подробней

Описание:
О русской женщине Анне Денисовой, перенесшей все тяготы Великой Отечественной войны, потерявшей мужа Петра, в трудные послевоенные годы вырастившей и воспитавшей своих троих детей: Сашу, Нину и Гранату. Редкая роль Ирины Скобцевой, где она играет не красивую светскую львицу, а простую русскую женщину. Первая работа в кино популярного певца 60-х годов Льва Барашкова.

Исходник: DVB
Качество видео: SATRip
Формат видео: AVI

Видео: 688х512 (4:3), 25 fps, XviD ~ 1652 kbps avg, 0.188 bit/pixel
Аудио: 48 kHz, Dolby Digital AC3 2.0, 192 kbps

Раздача от:
Общее
Полное имя : Annushka.1959.SATRip_[New-team]_by_AVP_Studio.avi
Формат : AVI
Формат/Информация : Audio Video Interleave
Размер файла : 1,09 Гбайт
Продолжительность : 1 ч. 24 м.
Общий поток : 1853 Кбит/сек
Программа кодирования : VirtualDubMod 1.5.10.3 | www.virtualdub-fr.org || (build 2550/release)
Библиотека кодирования : VirtualDubMod build 2550/release

Видео
Идентификатор : 0
Формат : MPEG-4 Visual
Профиль формата : Advanced [email protected]
Настройки формата : BVOP1 / Custom Matrix
Параметр BVOP формата : 1
Параметр QPel формата : Нет
Параметр GMC формата : Без точки перехода
Параметр матрицы формата : Выборочная
Идентификатор кодека : XVID
Идентификатор кодека/Подсказка : XviD
Продолжительность : 1 ч. 24 м.
Битрейт : 1652 Кбит/сек
Ширина : 688 пикселей
Высота : 512 пикселей
Соотношение сторон : 4:3
Частота кадров : 25,000 кадров/сек
Цветовое пространство : YUV
Субдискретизация насыщенности : 4:2:0
Битовая глубина : 8 бит
Тип развёртки : Прогрессивная
Метод сжатия : С потерями
Бит/(Пиксели*Кадры) : 0.188
Размер потока : 994 Мбайт (89%)
Библиотека кодирования : XviD 73

Аудио
Идентификатор : 1
Формат : AC-3
Формат/Информация : Audio Coding 3
Идентификатор кодека : 2000
Продолжительность : 1 ч. 24 м.
Вид битрейта : Постоянный
Битрейт : 192 Кбит/сек
Каналы : 2 канала
Расположение каналов : Front: L R
Частота : 48,0 КГц
Частота кадров : 31,250 кадров/сек (1536 SPF)
Битовая глубина : 16 бит
Метод сжатия : С потерями
Размер потока : 116 Мбайт (10%)
Выравнивание : Разделение по промежуткам
Продолжительность промежутка : 40 мс. (1,00 видеокадр)
Время предзагрузки промежутка : 500 мс



Скачать Аннушка через торрент http://i103.fastpic.ru/big/2018/0114/c8/d8ea92aef5d7cbcca2dbe12483211bc8.png Скачать, смотреть онлайн Аннушка бесплантно в хорошем качестве Описание:О русской женщине Анне Денисовой, перенесшей все тяготы Великой Отечественной войны, потерявшей мужа Петра, в трудные послевоенные ... 5 10 1
Info! Золотая раздача, скачанное не засчитывается.
Торрент: Зарегистрирован [2018-01-14 09:00] · скачан: 14 раз
Статус: √ проверено
Размер: 1.09 GB
Как cкачать? Как скачать Аннушка через торрент | UTorrent

% Раздел Тема Автор DL S | L
Кино СССР [ 1.09 GB ] Аннушка | | SATRip-AVC от AVP Studio AVP Studio Скачать
1 | 0
Кино СССР [ 745 MB ] Аннушка | | SATRip от AVP Studio AVP Studio Скачать
1 | 0

28-11-2019 20:33  


Отключить вcю реклaмy на сайте, в т.ч. и в плеере онлайн просмотра!

    Дорогой пользователь! Огромная просьба, поблагодарите релизера, оцените раздачу и оставьте свои комментарий, если Вы скачали Аннушка через торрент бесплатно!!
    Комментировать посты могут только пользователи прошедшие не сложную регистрацию
    Показать сообщения:    


    Аннушка через торрент
    Скачать бесплатно Аннушка
    Аннушка скачать торрент
    Аннушка смотреть онлайн
    Cкачать фильм Аннушка бесплатно
    Аннушка скачать торрент в хорошем качестве
    Аннушка смотреть онлайн бесплатно в хорошем качестве
    Вы не можете начинать темы
    Вы не можете отвечать на сообщения
    Вы не можете редактировать свои сообщения
    Вы не можете удалять свои сообщения
    Вы не можете голосовать в опросах
    Вы не можете прикреплять файлы к сообщениям
    Вы можете скачивать файлы
    Аннушка [1959, СССР, драма, SATRip от AVP Studio] смотреть онлайн, скачать торрент picoco.icu