Ссылка на приватное зеркало нашего сайта всего за 1$. Внимание количество ограничено!!!

2 сезон

iTunes

1 сезон

1

iTunes

iTunes

iTunes

1 сезон

RePack

30

ИГРА 18+

pack

ВАЖНО

!!Акция!!

Alien_RageХит недели

RePack

MK11
pack

Забери бонус

RePack

jed

!!Акция!!

Alien_Rage

RePack

fifa19

RePack

Assassins Creed: Odyssey

RePack

NEED FOR SPEED™ PAYBACK

4 сезон

9 сезон

Бесстыжие 9 сезон

Все сериалы

все сериалы на PB.wtf

RePack

FAR CRY 5
  

Дозор джунглей / Les as de la jungle (Дэвид Ало) [2017 г., мультфильм, приключения, семейный, BDRip, Rus Transfer, Дубляж Лицензия] pb.wtf

Дозор джунглей через торрент pb.wtf

Размер: 1.46 GB | Добавлен: 2 года 9 мес. назад | Торрент скачан:51 раз
Скачать  

15-01-2018 04:15 Дозор джунглей Скачать торрент  

Дозор джунглей / Les as de la jungle
Год выпуска: 2017
Страна: Франция
Жанр: мультфильм, приключения, семейный
Продолжительность: 01:37:04
Перевод: Дубляж Лицензия
Субтитры: Нет

Режиссер: Дэвид Ало

rating

В ролях: Пол Борн, Филипп Бозо, Паскаль Касанова, Эммануэль Кюртиль, Мишель Меля, Селин Монсарра, Лоран Морто, Жан-Филипп Пюмартин, Барбара Тиссье, Алексис Томассиан

Описание: Пингвин Морис тигрового окраса уверен, что он и в самом деле тигр — герой, в котором нуждаются джунгли. Вместе со своей энергичной командой разношерстных животных под названием «Дозор джунглей» он неусыпно стоит на страже справедливости и покоя. С переменным успехом, конечно, но они стараются. Однако вскоре ему предстоит столкнуться с невероятно коварным и безжалостным врагом — коалой Игорем и его армией туповатых бабуинов…

Качество: BDRip
Формат: AVI
Видео кодек: XviD
Аудио кодек: AC3
Видео: XviD, 1697 Kбит/с, 720x304, 24,000 fps
Аудио#1: AC3, 6 ch, 448 Кбит/с, 48,0 KHz
скриншот   скриншот   скриншот   скриншот   скриншот  

General
Complete name : H:\релизы.торрентфайл\D0z0r.JuHgle1.2017.BDRip.1.46Gb.Dub.MegaPeer.avi
Format : AVI
Format/Info : Audio Video Interleave
File size : 1.46 GiB
Duration : 1h 37mn
Overall bit rate : 2 154 Kbps
Writing application : VirtualDubMod 1.5.10.2 (build 2540/release)
Writing library : VirtualDubMod build 2540/release

Video
ID : 0
Format : MPEG-4 Visual
Format profile : Advanced Simple@L5
Format settings, BVOP : 1
Format settings, QPel : No
Format settings, GMC : No warppoints
Format settings, Matrix : Custom
Codec ID : XVID
Codec ID/Hint : XviD
Duration : 1h 37mn
Bit rate : 1 697 Kbps
Width : 720 pixels
Height : 304 pixels
Display aspect ratio : 2.35:1
Frame rate : 24.000 fps
Color space : YUV
Chroma subsampling : 4:2:0
Bit depth : 8 bits
Scan type : Progressive
Compression mode : Lossy
Bits/(Pixel*Frame) : 0.323
Stream size : 1.15 GiB (79%)
Writing library : XviD 73

Audio
ID : 1
Format : AC-3
Format/Info : Audio Coding 3
Mode extension : CM (complete main)
Format settings, Endianness : Big
Codec ID : 2000
Duration : 1h 37mn
Bit rate mode : Constant
Bit rate : 448 Kbps
Channel(s) : 6 channels
Channel positions : Front: L C R, Side: L R, LFE
Sampling rate : 48.0 KHz
Bit depth : 16 bits
Compression mode : Lossy
Stream size : 311 MiB (21%)
Alignment : Split accross interleaves
Interleave, duration : 42 ms (1.00 video frame)
Interleave, preload duration : 500 ms

pb.wtf



Скачать Дозор джунглей через торрент http://pic1.kartinco.top/images/11/qzkbv.jpg Скачать фильм Дозор джунглей через торрент бесплантно в хорошем качестве Описание: Пингвин Морис тигрового окраса уверен, что он и в самом деле тигр — герой, в котором нуждаются джунгли. Вместе со своей ... 10 10 2
Торрент: Зарегистрирован [2018-01-15 04:15] · скачан: 51 раз
Статус: √ проверено
Размер: 1.46 GB
Как cкачать? Как скачать Дозор джунглей через торрент | qTorrent

% Раздел Тема Автор DL S | L
Иностранные мультфильмы [ 1.46 GB ] Дозор джунглей / Les as de la jungle [2017 мультфильм BDRip] - [] Twi7ter Скачать
1 | 0
Иностранные мультфильмы [ 1.46 GB ] Дозор джунглей / Les as de la jungle [2017 Мультфильм BDRip-AVC] DUB [ BD RUS] bober100 Скачать
1 | 0

28-11-2019 20:33  

Отключить всю рекламу на сайте

    Дорогой пользователь! Огромная просьба, поблагодарите релизера, оцените раздачу и оставьте свои комментарий, если Вы скачали Дозор джунглей через торрент бесплатно! Внесите свою лепту в развитие PiratBit!
    Комментировать посты могут только пользователи прошедшие не сложную регистрацию
    Показать сообщения:    

    Дозор джунглей через торрент
    Скачать бесплатно Дозор джунглей
    Дозор джунглей скачать торрент
    Дозор джунглей смотреть онлайн
    Cкачать фильм Дозор джунглей бесплатно
    Дозор джунглей скачать торрент в хорошем качестве
    Дозор джунглей смотреть онлайн бесплатно в хорошем качестве


    Вы не можете начинать темы
    Вы не можете отвечать на сообщения
    Вы не можете редактировать свои сообщения
    Вы не можете удалять свои сообщения
    Вы не можете голосовать в опросах
    Вы не можете прикреплять файлы к сообщениям
    Вы можете скачивать файлы