Ссылка на приватное зеркало нашего сайта всего за 1$. Внимание количество ограничено!!!

2 сезон

iTunes

1 сезон

1

iTunes

iTunes

iTunes

1 сезон

RePack

30

ИГРА 18+

pack

ВАЖНО

!!Акция!!

Alien_RageХит недели

RePack

MK11
pack

Забери бонус

RePack

jed

!!Акция!!

Alien_Rage

RePack

fifa19

RePack

Assassins Creed: Odyssey

RePack

NEED FOR SPEED™ PAYBACK

4 сезон

9 сезон

Бесстыжие 9 сезон

Все сериалы

все сериалы на PB.wtf

RePack

FAR CRY 5
  

Психологини / Сезон: 1 / Серии 1-21 из 21 (Роман Фокин) [2017, Россия, Комедия, драма , WEB-DLRip] pb.wtf

Психологини через торрент pb.wtf

Раздают: 3 [ 0 KB/s ] Качают: 3 [ 0 KB/s ]
Размер: 6.17 GB | Добавлен: 2 года 9 мес. назад | Торрент скачан:367 раз
Скачать  

14-11-2017 00:40 Психологини Скачать торрент  

Психологини


  • Год выпуска: 2017
  • Страна: Россия
  • Жанр: Комедия, драма
  • Продолжительность: ~ 00:27:00 (Серия)
  • Перевод: Не требуется [Русский]
  • Режиссер: Роман Фокин
  • В ролях:
    Софья Ардова, Анна Старшенбаум, Анастасия Панина, Софья Каштанова, Дмитрий Мазуров, Егор Корешков, Роман Маякин, Дмитрий Ендальцев, Виталия Корниенко


  • Что такое «когнитивная беспомощность», «синдром самозванца» и «демон ревности» выпускницы психфака Вика, Таня и Алина знают не понаслышке. Правда, встретившись спустя десять лет, девушки понимают, что Фрейд и другие корифеи психологии не спасают личную жизнь. Алина заводит мимолетные романы, Вика стала тираном в собственной семье, а Таня обзавелась багажом комплексов. Подруги сблизились снова, чтобы помогать друг другу профессиональным советом, когда диагноз нужно поставить не пациенту, а самой себе.
  • Рейтинг:


  • Качество: WEB-DLRip
  • Формат: :AVI
  • Видео кодек: XviD
  • Аудио кодек: AC3
  • Видео: 1551 Кбит/сек, 720*400 (16:9), в 25,000 кадров/сек, MPEG-4 Visual (XviD)
  • Аудио: 192 Кбит/сек, 48,0 КГц, 16 бит, 2 канала, AC-3
  • Релиз от:

    Внимание! Раздача ведётся путём добавления новых серий; при каждом добавлении создаётся новый торрент. Чтобы начать докачку новой серии, пользователям необходимо сделать следующее:
    (1) остановить скачивание,
    (2) удалить старый торрент у себя из клиента (старые серии удалять не надо),
    (3) скачать новый торрент и запустить его у себя в клиенте вместо старого, при этом указать клиенту путь в старую папку куда и должно происходить скачивание новых серий.
    Ваш клиент при этом должен произвести хеширование (проверку) старой папки (если не производит сам - помогите ему сделать это), и будет докачивать только те серии которых у вас ещё нет. Старые серии при этом не удаляются, а продолжают раздаваться!
    Eсли вы уже удалили старые серии, то предотвратить повторную закачку старых серий можно, отжав галочку в соответствующих местах при запуске нового торрента. По возможности, желательно не удалять старые серии как можно дольше чтобы релизёр не столько продолжал раздавать старые серии, а смог сконцентрироваться на новых.
    Общее
    Полное имя : F:\Психологини.2017.WEB-DLRip. Files-x\05.Психологини.2017.WEB-DLRip. Files-x.avi
    Формат : AVI
    Формат/Информация : Audio Video Interleave
    Размер файла : 300 Мбайт
    Продолжительность : 23 м. 56 с.
    Общий поток : 1753 Кбит/сек
    Программа кодирования : VirtualDubMod 1.5.10.3 | www.virtualdub-fr.org || (build 2550/release)
    Библиотека кодирования : VirtualDubMod build 2550/release

    Видео
    Идентификатор : 0
    Формат : MPEG-4 Visual
    Профиль формата : Advanced Simple@L5
    Настройки формата : BVOP1 / Custom Matrix
    Параметр BVOP формата : 1
    Параметр QPel формата : Нет
    Параметр GMC формата : Без точки перехода
    Параметр матрицы формата : Выборочная
    Идентификатор кодека : XVID
    Идентификатор кодека/Подсказка : XviD
    Продолжительность : 23 м. 56 с.
    Битрейт : 1551 Кбит/сек
    Ширина : 720 пикселей
    Высота : 400 пикселей
    Соотношение сторон : 16:9
    Частота кадров : 25,000 кадров/сек
    Цветовое пространство : YUV
    Субдискретизация насыщенности : 4:2:0
    Битовая глубина : 8 бит
    Тип развёртки : Прогрессивная
    Метод сжатия : С потерями
    Бит/(Пиксели*Кадры) : 0.215
    Размер потока : 266 Мбайт (88%)
    Библиотека кодирования : XviD 73

    Аудио
    Идентификатор : 1
    Формат : AC-3
    Формат/Информация : Audio Coding 3
    Идентификатор кодека : 2000
    Продолжительность : 23 м. 56 с.
    Вид битрейта : Постоянный
    Битрейт : 192 Кбит/сек
    Каналы : 2 канала
    Расположение каналов : Front: L R
    Частота : 48,0 КГц
    Частота кадров : 31,250 кадров/сек (1536 SPF)
    Битовая глубина : 16 бит
    Метод сжатия : С потерями
    Размер потока : 32,9 Мбайт (11%)
    Выравнивание : Разделение по промежуткам
    Продолжительность промежутка : 40 мс. (1,00 видеокадр)
    Время предзагрузки промежутка : 500 мс.
    ServiceKind/String : Complete Main

    Скриншоты:
    скриншот   скриншот   скриншот   скриншот   скриншот   скриншот   скриншот  
    скриншот  

    Раздача ведётся путём добавления новых серий. Добавлена 18-21 серия (12.12.2017).Просьба перекачать торрент файл.

    pb.wtf



  • Скачать Психологини через торрент http://pic1.kartinco.top/images/11/oxiv4.jpg Скачать фильм Психологини через торрент бесплантно в хорошем качестве qw.png Что такое «когнитивная беспомощность», «синдром самозванца» и «демон ревности» выпускницы психфака Вика, Таня и Алина знают не ... 9.3 10 13
    Торрент: Зарегистрирован [2018-01-15 08:35] · скачан: 367 раз
    Статус: √ проверено
    Размер: 6.17 GB
    Как cкачать? Как скачать Психологини через торрент | qTorrent

    % Раздел Тема Автор DL S | L
    Наши сериалы [ 6.93 GB ] Психологини / Сезон: 2 / Серии: 1-21 из 21 [2019 WEB-DLRip-AVC] bober100 Скачать
    1 | 0
    Наши сериалы [ 6.28 GB ] Психологини / Сезон: 1 / Серии: 1-21 из 21 [2017 WEB-DLRip-AVC] bober100 Скачать
    1 | 0
    Наши сериалы [ 18.78 GB ] Психологини / Сезон: 2 / Серии: 1-21 из 21 [2019 WEB-DL 1080p] bober100 Скачать
    1 | 0
    Наши сериалы [ 13.28 GB ] Психологини / Сезон: 2 / Серии: 1-21 из 21 [2019 WEB-DL 720p] bober100 Скачать
    1 | 1
    Наши сериалы [ 6.15 GB ] Психологини / Сезон: 2 / Серии: 1-21 из 21 [2019 WEB-DLRip] bober100 Скачать
    2 | 0
    Наши сериалы [ 12.93 GB ] Психологини / Сезон 1 / Серии 1-21 из 21 [2017 WEB-DL 720p] bober100 Скачать
    1 | 0
    Наши сериалы [ 18.5 GB ] Психологини / Сезон: 1 / Серии: 1-21 из 21 [2017 WEB-DL 1080p] bober100 Скачать
    1 | 0


    Последний раз редактировалось: GEKADOL (2017-12-12 00:01), всего редактировалось 1 раз

    28-11-2019 20:33  

    Отключить всю рекламу на сайте

      Дорогой пользователь! Огромная просьба, поблагодарите релизера, оцените раздачу и оставьте свои комментарий, если Вы скачали Психологини через торрент бесплатно! Внесите свою лепту в развитие PiratBit!
      Комментировать посты могут только пользователи прошедшие не сложную регистрацию
      Показать сообщения:    

      Психологини через торрент
      Скачать бесплатно Психологини
      Психологини скачать торрент
      Психологини смотреть онлайн
      Cкачать фильм Психологини бесплатно
      Психологини скачать торрент в хорошем качестве
      Психологини смотреть онлайн бесплатно в хорошем качестве


      Вы не можете начинать темы
      Вы не можете отвечать на сообщения
      Вы не можете редактировать свои сообщения
      Вы не можете удалять свои сообщения
      Вы не можете голосовать в опросах
      Вы не можете прикреплять файлы к сообщениям
      Вы можете скачивать файлы