Ссылка на приватное зеркало нашего сайта всего за 1$. Внимание количество ограничено!!!

2 сезон

iTunes

1 сезон

1

iTunes

iTunes

iTunes

1 сезон

RePack

30

ИГРА 18+

pack

ВАЖНО

!!Акция!!

Alien_RageХит недели

RePack

MK11
pack

Забери бонус

RePack

jed

!!Акция!!

Alien_Rage

RePack

fifa19

RePack

Assassins Creed: Odyssey

RePack

NEED FOR SPEED™ PAYBACK

4 сезон

9 сезон

Бесстыжие 9 сезон

Все сериалы

все сериалы на PB.wtf

RePack

FAR CRY 5
  

Психологини / Сезон: 1 / Серии: 1-21 из 21 (Роман Фокин) [2017, Драма, WEB-DL 1080p] pb.wtf

Психологини через торрент pb.wtf

Размер: 18.5 GB | Добавлен: 2 года 9 мес. назад | Торрент скачан:182 раза
Скачать  

20-11-2017 14:40 Психологини Скачать торрент  

ПсихологиниГод выпуска: 2017
Страна: Россия
Жанр: Драма
Продолжительность: 21 x ~ 00:25:00
Перевод: Не требуется
Субтитры: отсутствуют

Режиссер: Роман Фокин



В ролях:

Софья Ардова, Анна Старшенбаум, Анастасия Панина, Софья Каштанова, Дмитрий Мазуров, Егор Корешков, Роман Маякин, Дмитрий Ендальцев, Виталия Корниенко

Описание:

Что такое «когнитивная беспомощность», «синдром самозванца» и «демон ревности» выпускницы психфака Вика, Таня и Алина знают не понаслышке. Правда, встретившись спустя десять лет, девушки понимают, что Фрейд и другие корифеи психологии не спасают личную жизнь. Алина заводит мимолетные романы, Вика стала тираном в собственной семье, а Таня обзавелась багажом комплексов. Подруги сблизились снова, чтобы помогать друг другу профессиональным советом, когда диагноз нужно поставить не пациенту, а самой себе.

Качество: WEB-DL 1080p
Формат: MKV
Видео кодек: AVC
Аудио кодек: AC3

Видео: 1920х1080 (16:9), 25 fps, AVC MPEG-4 (x264), High@L4.0 ~ 5000 kbps avg, 0.152 bit/pixel
Аудио: AC-3 , 48 kHz, 2 ch, ~ 192 kbps avg
скриншот   скриншот   скриншот   скриншот  

Общее
Уникальный идентификатор : 22265496392516956889211352664135169546 (0x10C02DBA3AF7678180BB8FBE3FDFF60A)
Полное имя : D:\Psihologini.S01.2017.WEB-DL.(1080p).Nikolspup\Psihologini.S01.(01.seriya).2017.WEB-DL.(1080p).Nikolspup.mkv
Формат : Matroska
Версия формата : Version 2
Размер файла : 934 Мбайт
Продолжительность : 24 м. 42 с.
Общий поток : 5286 Кбит/сек
Программа кодирования : Lavf54.63.104
Библиотека кодирования : Lavf54.63.104 / Lavf54.63.104

Видео
Идентификатор : 1
Формат : AVC
Формат/Информация : Advanced Video Codec
Профиль формата : High@L4
Параметр CABAC формата : Да
Параметр ReFrames формата : 4 кадра
Идентификатор кодека : V_MPEG4/ISO/AVC
Продолжительность : 24 м. 42 с.
Битрейт : 4989 Кбит/сек
Ширина : 1920 пикселей
Высота : 1080 пикселей
Соотношение сторон : 16:9
Режим частоты кадров : Постоянный
Частота кадров : 25,000 кадров/сек
Цветовое пространство : YUV
Субдискретизация насыщенности : 4:2:0
Битовая глубина : 8 бит
Тип развёртки : Прогрессивная
Бит/(Пиксели*Кадры) : 0.096
Размер потока : 882 Мбайт (94%)
Default : Нет
Forced : Нет

Аудио
Идентификатор : 2
Формат : AC-3
Формат/Информация : Audio Coding 3
Расширение режима : CM (complete main)
Параметр Endianness формата : Big
Идентификатор кодека : A_AC3
Продолжительность : 24 м. 42 с.
Вид битрейта : Постоянный
Битрейт : 192 Кбит/сек
Каналы : 2 канала
Расположение каналов : Front: L R
Частота : 48,0 КГц
Частота кадров : 31,250 кадров/сек (1536 spf)
Метод сжатия : С потерями
Размер потока : 33,9 Мбайт (4%)
Язык : Russian
Default : Да
Forced : Нет

Когда раздача ведётся путём добавления новых серий, при каждом добавлении создётся новый торрент. Чтобы начать докачку новой серии, пользователям необходимо сделать следующее:
(1) остановить скачивание,
(2) удалить старый торрент у себя из клиента (старые серии удалять не надо),
(3) скачать новый торрент и запустить его у себя в клиенте вместо старого, при этом указать клиенту путь в старую папку, куда и должно происходить скачивание новых серий.
Ваш клиент при этом должен произвести хеширование (проверку) старой папки (если не производит сам - помогите ему сделать это), и будет докачивать только те серии, которых у вас ещё нет. Старые серии при этом не удаляются, а продолжают раздаваться!
Eсли вы уже удалили старые серии, то предотвратить повторную закачку старых серий можно, отжав галочку в соответсвующих местах при запуске нового торрента. По возможности, желательно не удалять старые серии как можно дольше, чтобы релизёр не столько продолжал раздавать старые серии, а смог сконцентрироваться на новых.
pb.wtf



Скачать Психологини через торрент http://i97.fastpic.ru/big/2017/1113/a3/20b6266377f70168188b3ccd54e4f3a3.jpg Скачать фильм Психологини через торрент бесплантно в хорошем качестве Описание: Что такое «когнитивная беспомощность», «синдром самозванца» и «демон ревности» выпускницы психфака Вика, Таня и Алина знают не ... 7.7 10 13
Info! Золотая раздача, скачанное не засчитывается.
Торрент: Зарегистрирован [2018-01-15 08:35] · скачан: 182 раз
Статус: √ проверено
Размер: 18.5 GB
Как cкачать? Как скачать Психологини через торрент | qTorrent

% Раздел Тема Автор DL S | L
Наши сериалы [ 6.93 GB ] Психологини / Сезон: 2 / Серии: 1-21 из 21 [2019 WEB-DLRip-AVC] bober100 Скачать
2 | 0
Наши сериалы [ 6.28 GB ] Психологини / Сезон: 1 / Серии: 1-21 из 21 [2017 WEB-DLRip-AVC] bober100 Скачать
1 | 0
Наши сериалы [ 18.78 GB ] Психологини / Сезон: 2 / Серии: 1-21 из 21 [2019 WEB-DL 1080p] bober100 Скачать
1 | 0
Наши сериалы [ 13.28 GB ] Психологини / Сезон: 2 / Серии: 1-21 из 21 [2019 WEB-DL 720p] bober100 Скачать
1 | 1
Наши сериалы [ 6.15 GB ] Психологини / Сезон: 2 / Серии: 1-21 из 21 [2019 WEB-DLRip] bober100 Скачать
1 | 0
Наши сериалы [ 12.93 GB ] Психологини / Сезон 1 / Серии 1-21 из 21 [2017 WEB-DL 720p] bober100 Скачать
1 | 0
Наши сериалы [ 6.17 GB ] Психологини / Сезон: 1 / Серии 1-21 из 21 [2017 Россия WEB-DLRip] GEKADOL Скачать
7 | 4


Последний раз редактировалось: bober100 (2017-12-12 17:01), всего редактировалось 3 раз(а)

28-11-2019 20:33  

Отключить всю рекламу на сайте

    Дорогой пользователь! Огромная просьба, поблагодарите релизера, оцените раздачу и оставьте свои комментарий, если Вы скачали Психологини через торрент бесплатно! Внесите свою лепту в развитие PiratBit!
    Комментировать посты могут только пользователи прошедшие не сложную регистрацию
    Показать сообщения:    

    Психологини через торрент
    Скачать бесплатно Психологини
    Психологини скачать торрент
    Психологини смотреть онлайн
    Cкачать фильм Психологини бесплатно
    Психологини скачать торрент в хорошем качестве
    Психологини смотреть онлайн бесплатно в хорошем качестве


    Вы не можете начинать темы
    Вы не можете отвечать на сообщения
    Вы не можете редактировать свои сообщения
    Вы не можете удалять свои сообщения
    Вы не можете голосовать в опросах
    Вы не можете прикреплять файлы к сообщениям
    Вы можете скачивать файлы