Ссылка на приватное зеркало нашего сайта всего за 1$. Внимание количество ограничено!!!

2 сезон

iTunes

1 сезон

1

2 сезон

2 сезон

iTunes

1 сезон

RePack

30

Ultimate

ВАЖНО

ИГРА 18+

pack

RePack

MK11
pack

Забери бонус

RePack

jed

!!Акция!!

Alien_Rage

RePack

fifa19

RePack

Assassins Creed: Odyssey

RePack

NEED FOR SPEED™ PAYBACK

4 сезон

9 сезон

Бесстыжие 9 сезон

Все сериалы

все сериалы на PB.wtf

RePack

FAR CRY 5
  

Битва полов / Battle of the Sexes (Джонатан Дэйтон, Валери Фэрис) [2017, драма, комедия, биография, спорт, BDRip-AVC] [Ukr DUB] [Лицензия] pb.wtf

Битва полов через торрент pb.wtf

Размер: 2.18 GB | Добавлен: 2 года 10 мес. назад | Торрент скачан:18 раз
Скачать  

15-01-2018 10:30 Битва полов Скачать торрент  

Битва полов / Битва статей / Battle of the Sexes
Год выпуска: 2017
Страна: Великобритания, США
Жанр: драма, комедия, биография, спорт
Продолжительность: 02:01:39
Перевод: Украинский (дублированный) [Лицензия]
Субтитры: Украинские, английские

Режиссер: Джонатан Дэйтон, Валери Фэрис

В ролях: Эмма Стоун, Стив Карелл, Андреа Райзборо, Натали Моралес, Сара Силверман, Билл Пуллман, Алан Камминг, Элизабет Шу, Эрик Кристиан Олсен, Фред Армисен

Описание: История соперничества между 55-летним чемпионом Уимблдона Бобби Риггсом и 29-летней теннисисткой Билли Джин Кинг. Легендарный матч, прошедший в 1973 году, собрал возле экранов более 50 миллионов американцев и доказал, что профессиональные спортсменки способны на равных состязаться с коллегами-мужчинами.



Качество: BDRip-AVC
Формат: MKV
Видео кодек: AVC
Аудио кодек: AC3
Видео: AVC, 1024 х 428, 1926 Кбит/с, 23,976 fps
Аудио: 48.0 KHz, AC3, 2 ch, 192 Кбит/с - Ukr DUB
Аудио: 48.0 KHz, AC3, 6 ch, 448 Кбит/с - Eng

Релиз --
General
Unique ID : 181604840831049649761911245712379206064 (0x889FD1F21686BDA29EAA758EA259D9B0)
Complete name : E:\INTERNET\Battle of the Sexes (2017) BDRip-AVC [UKR_ENG] [Hurtom].mkv
Format : Matroska
Format version : Version 4 / Version 2
File size : 2.18 GiB
Duration : 2 h 1 min
Overall bit rate : 2 566 kb/s
Encoded date : UTC 2018-01-14 19:51:02
Writing application : mkvmerge v14.0.0 ('Flow') 64bit
Writing library : libebml v1.3.4 + libmatroska v1.4.5
Cover : Yes
Attachments : cover

Video
ID : 1
Format : AVC
Format/Info : Advanced Video Codec
Format profile : High@L4.1
Format settings : CABAC / 12 Ref Frames
Format settings, CABAC : Yes
Format settings, RefFrames : 12 frames
Codec ID : V_MPEG4/ISO/AVC
Duration : 2 h 1 min
Bit rate : 1 926 kb/s
Width : 1 024 pixels
Height : 428 pixels
Display aspect ratio : 2.40:1
Frame rate mode : Constant
Frame rate : 23.976 (24000/1001) FPS
Color space : YUV
Chroma subsampling : 4:2:0
Bit depth : 8 bits
Scan type : Progressive
Bits/(Pixel*Frame) : 0.183
Stream size : 1.59 GiB (73%)
Writing library : x264 core 142 r2431 ac76440
Encoding settings : cabac=1 / ref=12 / deblock=1:-1:-1 / analyse=0x3:0x113 / me=umh / subme=11 / psy=1 / psy_rd=1.00:0.15 / mixed_ref=1 / me_range=32 / chroma_me=1 / trellis=2 / 8x8dct=1 / cqm=0 / deadzone=21,11 / fast_pskip=0 / chroma_qp_offset=-5 / threads=12 / lookahead_threads=2 / sliced_threads=0 / nr=0 / decimate=1 / interlaced=0 / bluray_compat=0 / constrained_intra=0 / bframes=8 / b_pyramid=2 / b_adapt=2 / b_bias=0 / direct=1 / weightb=1 / open_gop=0 / weightp=2 / keyint=240 / keyint_min=23 / scenecut=40 / intra_refresh=0 / rc_lookahead=60 / rc=2pass / mbtree=1 / bitrate=1926 / ratetol=1.0 / qcomp=0.60 / qpmin=10 / qpmax=69 / qpstep=4 / cplxblur=20.0 / qblur=0.5 / vbv_maxrate=50000 / vbv_bufsize=62500 / nal_hrd=none / filler=0 / ip_ratio=1.40 / aq=1:1.00
Language : English
Default : Yes
Forced : No

Audio #1
ID : 2
Format : AC-3
Format/Info : Audio Coding 3
Format settings, Endianness : Big
Codec ID : A_AC3
Duration : 2 h 1 min
Bit rate mode : Constant
Bit rate : 192 kb/s
Channel(s) : 2 channels
Channel positions : Front: L R
Sampling rate : 48.0 kHz
Frame rate : 31.250 FPS (1536 SPF)
Bit depth : 16 bits
Compression mode : Lossy
Stream size : 167 MiB (7%)
Title : AC3 2.0 @ 192 kbps
Language : Ukrainian
Service kind : Complete Main
Default : Yes
Forced : Yes

Audio #2
ID : 3
Format : AC-3
Format/Info : Audio Coding 3
Format settings, Endianness : Big
Codec ID : A_AC3
Duration : 2 h 1 min
Bit rate mode : Constant
Bit rate : 448 kb/s
Channel(s) : 6 channels
Channel positions : Front: L C R, Side: L R, LFE
Sampling rate : 48.0 kHz
Frame rate : 31.250 FPS (1536 SPF)
Bit depth : 16 bits
Compression mode : Lossy
Stream size : 390 MiB (17%)
Title : AC3 5.1 @ 448 kbps
Language : English
Service kind : Complete Main
Default : No
Forced : No

Text #1
ID : 4
Format : UTF-8
Codec ID : S_TEXT/UTF8
Codec ID/Info : UTF-8 Plain Text
Title : Full
Language : Ukrainian
Default : No
Forced : No

Text #2
ID : 5
Format : UTF-8
Codec ID : S_TEXT/UTF8
Codec ID/Info : UTF-8 Plain Text
Title : Full
Language : English
Default : No
Forced : No

Text #3
ID : 6
Format : UTF-8
Codec ID : S_TEXT/UTF8
Codec ID/Info : UTF-8 Plain Text
Title : SDH
Language : English
Default : No
Forced : No

Menu
00:00:00.000 : en:00:00:00.000
00:03:34.423 : en:00:03:34.423
00:07:51.304 : en:00:07:51.304
00:10:57.532 : en:00:10:57.532
00:15:13.621 : en:00:15:13.621
00:19:09.523 : en:00:19:09.523
00:22:54.915 : en:00:22:54.915
00:27:57.676 : en:00:27:57.676
00:34:32.946 : en:00:34:32.946
00:38:57.835 : en:00:38:57.835
00:44:57.278 : en:00:44:57.278
00:49:17.079 : en:00:49:17.079
00:54:23.927 : en:00:54:23.927
00:57:54.763 : en:00:57:54.763
01:06:28.276 : en:01:06:28.276
01:15:03.499 : en:01:15:03.499
01:19:37.940 : en:01:19:37.940
01:23:21.914 : en:01:23:21.914
01:30:49.819 : en:01:30:49.819
01:35:11.623 : en:01:35:11.623
01:38:59.142 : en:01:38:59.142
01:43:04.053 : en:01:43:04.053
01:48:47.062 : en:01:48:47.062
01:55:22.749 : en:01:55:22.749
скриншот  скриншот  скриншот  
pb.wtf



Скачать Битва полов через торрент http://i102.fastpic.ru/big/2018/0115/06/c7c1b639dabdf75c9773bb097e5f2006.jpg Скачать фильм Битва полов через торрент бесплантно в хорошем качестве Описание: История соперничества между 55-летним чемпионом Уимблдона Бобби Риггсом и 29-летней теннисисткой Билли Джин Кинг. Легендарный ... 10 10 1
Торрент: Зарегистрирован [2018-01-15 10:30] · скачан: 18 раз
Статус: √ проверено
Размер: 2.18 GB
Как cкачать? Как скачать Битва полов через торрент | qTorrent

% Раздел Тема Автор DL S | L
Фильмы (HD 720p, 1080p) (48-60 fps) [ 14.94 GB ] Битва полов / Battle of the Sexes [2017 биография BDRip 1080p / 60 FPS Оригинал] Tiberiumsun69 Скачать
1 | 0
Фильмы 2017 [DVDrip, WEB-DLRip, HDrip] (DUB, MVO) [ 1.37 GB ] Битва полов / Battle of the Sexes [2017 биография HDRip] [MVO] [] killermax2013 Скачать
2 | 0
Фильмы 2017 [DVDrip, WEB-DLRip, HDrip] (DUB, MVO) [ 3.1 GB ] Битва полов / Battle of the Sexes [2017 биография BDRip-AVC] MVO [] sokol_ok Скачать
4 | 0
Фильмы 2017 [DVDrip, WEB-DLRip, HDrip] (DUB, MVO) [ 1.46 GB ] Битва полов / Battle of the Sexes [2017 биография BDRip] MVO [] Twi7ter Скачать
1 | 0
Фильмы (Blu-ray, BD-Remux, HDDVD) [ 31.52 GB ] Битва полов / Battle of the Sexes [2017 биография BD Remux 1080p] MVO [] bober100 Скачать
1 | 0
Фильмы 2017 [DVDrip, WEB-DLRip, HDrip] (DUB, MVO) [ 1.49 GB ] Битва полов / Battle of the Sexes [2017 биография BDRip-AVC] MVO [] sokol_ok Скачать
2 | 0
Фильмы 2017 [DVDrip, WEB-DLRip, HDrip] (DUB, MVO) [ 2.05 GB ] Битва полов / Battle of the Sexes [2017 биография BDRip] [MVO] [] killermax2013 Скачать
1 | 0

28-11-2019 20:33  

Отключить всю рекламу на сайте

    Дорогой пользователь! Огромная просьба, поблагодарите релизера, оцените раздачу и оставьте свои комментарий, если Вы скачали Битва полов через торрент бесплатно! Внесите свою лепту в развитие PiratBit!
    Комментировать посты могут только пользователи прошедшие не сложную регистрацию
    Показать сообщения:    

    Битва полов через торрент
    Скачать бесплатно Битва полов
    Битва полов скачать торрент
    Битва полов смотреть онлайн
    Cкачать фильм Битва полов бесплатно
    Битва полов скачать торрент в хорошем качестве
    Битва полов смотреть онлайн бесплатно в хорошем качестве


    Вы не можете начинать темы
    Вы не можете отвечать на сообщения
    Вы не можете редактировать свои сообщения
    Вы не можете удалять свои сообщения
    Вы не можете голосовать в опросах
    Вы не можете прикреплять файлы к сообщениям
    Вы можете скачивать файлы