Ссылка на приватное зеркало нашего сайта всего за 1$. Внимание количество ограничено!!!

2 сезон

iTunes

1 сезон

1

2 сезон

2 сезон

iTunes

1 сезон

RePack

30

Ultimate

ВАЖНО

ИГРА 18+

pack

RePack

MK11
pack

Забери бонус

RePack

jed

!!Акция!!

Alien_Rage

RePack

fifa19

RePack

Assassins Creed: Odyssey

RePack

NEED FOR SPEED™ PAYBACK

4 сезон

9 сезон

Бесстыжие 9 сезон

Все сериалы

все сериалы на PB.wtf

RePack

FAR CRY 5
  

МакМафия / McMafia / Сезон: 1 / Серии 1-8 из 8 (Джеймс Уоткинс) [2018, США, Великобритания, Триллер, драма, криминал, WEBRip] MVO [BaibaKo] pb.wtf

МакМафия через торрент pb.wtf

Размер: 5.2 GB | Добавлен: 2 года 9 мес. назад | Торрент скачан:91 раз
Скачать  

16-01-2018 00:46 МакМафия Скачать торрент  


МакМафия / McMafia



  • Год выпуска: 2018
  • Страна: США, Великобритания
  • Жанр: Триллер, драма, криминал
  • Продолжительность: ~ 00:55:00 (Серия)
  • Перевод: Профессиональный многоголосый [BaibaKo]
  • Режиссер: Джеймс Уоткинс
  • В ролях:
    Джеймс Нортон, Дэвид Стрэтэйрн, Джульет Райлэнс, Алексей Серебряков, Мария Шукшина, Ошри Коэн, Мераб Нинидзе, Клиффорд Сэмюэл, Юваль Шарф, Атул Кейл



  • Алекс Гудман, сын русских эмигрантов, пытается выйти из тени своей бывшей мафиозной семейки и создать личный бизнес и семью со своей подругой Ребеккой. Но прошлое семьи даёт о себе знать, и Алекс вынужден внедриться в преступный мир, чтобы защитить тех, кого любит.
  • Рейтинг:

    rating
  • Качество: WEBRip
  • Формат: :AVI
  • Видео кодек: XviD
  • Аудио кодек: MP3
  • Видео: 1439 Кбит/сек, 720*408 (16:9), в 25,000 кадров/сек, MPEG-4 Visual (XviD)
  • Аудио №1: русский 192 Кбит/сек, 48,0 КГц, 2 канала, MPEG Audio (MP3) |[BaibaKo]|
  • Релиз от: GEKADOL

    Внимание! Раздача ведётся путём добавления новых серий; при каждом добавлении создаётся новый торрент. Чтобы начать докачку новой серии, пользователям необходимо сделать следующее:
    (1) остановить скачивание,
    (2) удалить старый торрент у себя из клиента (старые серии удалять не надо),
    (3) скачать новый торрент и запустить его у себя в клиенте вместо старого, при этом указать клиенту путь в старую папку куда и должно происходить скачивание новых серий.
    Ваш клиент при этом должен произвести хеширование (проверку) старой папки (если не производит сам - помогите ему сделать это), и будет докачивать только те серии которых у вас ещё нет. Старые серии при этом не удаляются, а продолжают раздаваться!
    Eсли вы уже удалили старые серии, то предотвратить повторную закачку старых серий можно, отжав галочку в соответствующих местах при запуске нового торрента. По возможности, желательно не удалять старые серии как можно дольше чтобы релизёр не столько продолжал раздавать старые серии, а смог сконцентрироваться на новых.
    Общее
    Полное имя : F:\МакМафия (McMafia) XviD\McMafia.s01e04.WEBRip.XviD.Rus.Eng.BaibaKo.tv.avi
    Формат : AVI
    Формат/Информация : Audio Video Interleave
    Размер файла : 687 Мбайт
    Продолжительность : 58 м. 35 с.
    Общий поток : 1640 Кбит/сек
    Библиотека кодирования : Boilsoft AVI tool build 30012/release

    Видео
    Идентификатор : 0
    Формат : MPEG-4 Visual
    Профиль формата : Advanced Simple@L5
    Настройки формата : BVOP2
    Параметр BVOP формата : 2
    Параметр QPel формата : Нет
    Параметр GMC формата : Без точки перехода
    Параметр матрицы формата : Default (H.263)
    Идентификатор кодека : XVID
    Идентификатор кодека/Подсказка : XviD
    Продолжительность : 58 м. 35 с.
    Битрейт : 1439 Кбит/сек
    Ширина : 720 пикселей
    Высота : 408 пикселей
    Соотношение сторон : 16:9
    Частота кадров : 25,000 кадров/сек
    Цветовое пространство : YUV
    Субдискретизация насыщенности : 4:2:0
    Битовая глубина : 8 бит
    Тип развёртки : Прогрессивная
    Метод сжатия : С потерями
    Бит/(Пиксели*Кадры) : 0.196
    Размер потока : 603 Мбайт (88%)
    Библиотека кодирования : XviD 67

    Аудио
    Идентификатор : 1
    Формат : MPEG Audio
    Версия формата : Version 1
    Профиль формата : Layer 3
    Настройки формата : Joint stereo
    Идентификатор кодека : 55
    Идентификатор кодека/Подсказка : MP3
    Продолжительность : 58 м. 35 с.
    Вид битрейта : Постоянный
    Битрейт : 192 Кбит/сек
    Каналы : 2 канала
    Частота : 48,0 КГц
    Метод сжатия : С потерями
    Размер потока : 80,5 Мбайт (12%)
    Выравнивание : Разделение по промежуткам
    Продолжительность промежутка : 40 мс. (1,00 видеокадр)
    Время предзагрузки промежутка : 500 мс.
    Библиотека кодирования : LAME3.99•UUYйС / Г$



    Скриншоты:
    скриншот   скриншот   скриншот   скриншот   скриншот   скриншот   скриншот  
    скриншот  

    Раздача ведётся путём добавления новых серий. Добавлена 8 серия (13.02.2018).Просьба перекачать торрент файл.


    pb.wtf



  • Скачать МакМафия через торрент http://pic1.kartinco.top/images/11/9ikq5.jpg Скачать фильм МакМафия через торрент бесплантно в хорошем качестве qw.png Алекс Гудман, сын русских эмигрантов, пытается выйти из тени своей бывшей мафиозной семейки и создать личный бизнес и семью со ... 7.8 10 9
    Info! Золотая раздача, скачанное не засчитывается.
    Торрент: Зарегистрирован [2018-02-12 23:33] · скачан: 91 раз
    Статус: √ проверено
    Размер: 5.2 GB
    Как cкачать? Как скачать МакМафия через торрент | qTorrent

    % Раздел Тема Автор DL S | L
    Зарубежные сериалы [ 24.11 GB ] МакМафия / McMafia / Сезон: 1 / Серии: 1-8 из 8 [2018 BDRip 720p] MVO [Good People] bober100 Скачать
    1 | 0
    Зарубежные сериалы [ 5.47 GB ] МакМафия / McMafia / Сезон: 1 / Серии: 1-8 из 8 [2018 HDRip] MVO [Good People] bober100 Скачать
    1 | 0
    Зарубежные сериалы [ 7.57 GB ] МакМафия / McMafia / Сезон: 1 / Серии: 1-8 из 8 [2018 BDRip] [MVO] killermax2013 Скачать
    2 | 0
    Зарубежные сериалы [ 13.75 GB ] МакМафия / McMafia / Сезон 1 / Серии 1-8 из 8 [2017 WEB-DLRip 720р] [MVO] killermax2013 Скачать
    1 | 0
    Зарубежные сериалы [ 15.1 GB ] МакМафия / McMafia / Сезон: 1 / Серии: 1-8 из 8 [2017 WEBRip 720p] MVO [Jaskier] bober100 Скачать
    1 | 0
    Зарубежные сериалы [ 25.41 GB ] МакМафия / McMafia / Сезон 1 / Серии 1-8 из 8 [2017 WEBRip 1080p] MVO [BaibaKo] bober100 Скачать
    1 | 0
    Зарубежные сериалы [ 23.64 GB ] МакМафия / McMafia / Сезон: 1 / Серии: 1-8 из 8 [2017 WEBRip 1080p] MVO [Jaskier] bober100 Скачать
    1 | 0

    28-11-2019 20:33  

    Отключить всю рекламу на сайте

      Дорогой пользователь! Огромная просьба, поблагодарите релизера, оцените раздачу и оставьте свои комментарий, если Вы скачали МакМафия через торрент бесплатно! Внесите свою лепту в развитие PiratBit!
      Комментировать посты могут только пользователи прошедшие не сложную регистрацию
      Показать сообщения:    

      МакМафия через торрент
      Скачать бесплатно МакМафия
      МакМафия скачать торрент
      МакМафия смотреть онлайн
      Cкачать фильм МакМафия бесплатно
      МакМафия скачать торрент в хорошем качестве
      МакМафия смотреть онлайн бесплатно в хорошем качестве


      Вы не можете начинать темы
      Вы не можете отвечать на сообщения
      Вы не можете редактировать свои сообщения
      Вы не можете удалять свои сообщения
      Вы не можете голосовать в опросах
      Вы не можете прикреплять файлы к сообщениям
      Вы можете скачивать файлы